<?xml version="1.0" standalone="no"?>
<!DOCTYPE svg PUBLIC "-//W3C//DTD SVG 1.1//EN" "http://www.w3.org/Graphics/SVG/1.1/DTD/svg11.dtd">
<svg xmlns="http://www.w3.org/2000/svg">
<metadata>Copyright (C) 2015 by original authors @ fontello.com</metadata>
<defs>
<font id="fontello" horiz-adv-x="1000" >
<font-face font-family="fontello" font-weight="400" font-stretch="normal" units-per-em="1000" ascent="850" descent="-150" />
<missing-glyph horiz-adv-x="1000" />
<glyph glyph-name="phone" unicode="&#xe800;" d="m786 158q0-15-6-39t-12-38q-11-28-68-60-52-28-103-28-16 0-30 2t-32 7-26 8-31 11-28 10q-54 20-97 47-72 44-148 120t-120 148q-27 43-46 97-2 5-10 28t-12 31-8 26-7 32-2 29q0 52 29 104 31 56 59 68 14 6 38 12t39 6q8 0 12-2 10-3 30-43 6-10 16-30t20-35 17-30q2-2 10-14t12-20 4-16q0-11-16-28t-35-30-34-30-16-25q0-5 3-13t4-11 8-14 7-10q42-77 97-132t131-97q1 0 10-6t14-8 11-5 13-2q10 0 25 15t30 35 31 35 28 16q7 0 15-4t20-12 14-10q14-8 30-17t35-20 31-17q39-19 42-29 2-4 2-12z" horiz-adv-x="785.7" />
<glyph glyph-name="person" unicode="&#xe801;" d="m566 468c0 60-48 109-106 109h-354c-58 0-106-49-106-109v-236c0-30 24-55 53-55s53 25 53 55v200h35v-518c0-36 28-64 62-64s62 28 62 64v263h35v-263c0-36 28-64 62-64 35 0 62 28 62 64v518h36v-200c0-30 23-55 53-55 29 0 53 25 53 55v236z m-159 255c0 70-56 127-124 127s-124-57-124-127c0-71 55-127 124-127s124 56 124 127z" horiz-adv-x="566" />
<glyph glyph-name="help-circled" unicode="&#xe802;" d="m454 810q190 2 326-130t140-322q2-190-131-327t-323-141q-190-2-327 131t-139 323q-4 190 130 327t324 139z m-2-740q30 0 49 19t19 47q2 30-17 49t-49 19l-2 0q-28 0-47-18t-21-46q0-30 19-49t47-21l2 0z m166 328q26 34 26 78 0 78-54 116-52 38-134 38-64 0-104-26-68-42-72-146l0-4 110 0 0 4q0 26 16 54 16 24 54 24 40 0 52-20 16-20 16-44 0-18-16-40-8-12-20-20l-6-4q-6-4-16-11t-20-15-21-17-17-17q-14-20-18-78l0-8 108 0 0 4q0 12 4 28 6 20 28 36l28 18q46 34 56 50z" horiz-adv-x="920" />
<glyph glyph-name="user" unicode="&#xe803;" d="m786 66q0-67-41-106t-108-39h-488q-67 0-108 39t-41 106q0 30 2 58t8 61 15 60 24 55 34 45 48 30 62 11q5 0 24-12t41-27 60-27 75-12 74 12 61 27 41 27 24 12q34 0 62-11t48-30 34-45 24-55 15-60 8-61 2-58z m-179 498q0-88-63-151t-151-63-152 63-62 151 62 152 152 63 151-63 63-152z" horiz-adv-x="785.7" />
<glyph glyph-name="currency" unicode="&#xe804;" d="m27 849c-11-4-19-11-24-21l-2-6 0-388 0-388 3-6c3-8 12-16 20-19l6-2 203-1c112 0 204 0 204 1 0 0-2 6-4 12-8 25-12 52-12 79-1 8-1 73 0 145l0 130 52 0 51 0 0-20 0-20 11 8c17 13 38 26 54 34l7 3 0 210c0 132 0 213-1 218 0 4-2 9-3 12-4 6-12 14-19 17l-5 3-268 0c-220 0-270 0-273-1z m497-143l0-67-226 0-227 0 0 67 0 67 227 0 226 0 0-67z m-348-205l0-52-53 0-52 0 0 52 0 52 52 0 53 0 0-52z m174 0l0-52-52 0-52 0 0 52 0 52 52 0 52 0 0-52z m174 0l0-52-51 0-52 0 0 52 0 52 52 0 51 0 0-52z m-349-168l0-52-52 0-52 0 0 51c0 27 0 51 0 52 1 1 12 1 52 1l52-1 0-51z m175 0l0-53-52 0-52 0 0 53 0 52 52 0 52 0 0-52z m-174-169l0-52-53 0-52 0 0 52 0 52 52 0 53 0 0-52z m174 0l0-52-52 0-52 0 0 52 0 52 52 0 52 0 0-52z m338 219c-48-6-92-23-130-52-58-44-97-112-104-184-2-15-2-47 0-62 14-112 97-204 208-229 32-7 70-8 102-2 106 18 190 96 215 199 6 24 8 37 8 65 0 28-2 40-8 65-11 46-34 86-68 121-23 24-44 39-73 53-25 13-51 21-78 25-15 3-57 3-72 1z m49-79c6-4 8-10 8-20l0-9 5-1c9-2 19-7 26-10 18-11 37-38 36-50-2-11-9-16-23-17-8 0-9 0-13 2-5 3-6 5-9 13-8 17-23 27-44 27-17 0-29-4-38-14-18-18-18-47 1-64 10-10 20-14 54-21 21-4 27-6 39-12 21-12 33-26 40-48 2-7 3-11 3-23 1-23-3-39-15-56-12-19-33-33-56-38l-6-1 0-7c0-9-3-16-9-19-6-3-21-4-27 0-6 3-8 8-9 17l0 9-9 2c-18 5-33 13-43 24-12 13-22 33-23 47 0 5 0 7 2 10 3 6 6 8 14 10 10 2 13 1 18-1 6-2 8-6 12-17 7-25 27-39 53-39 17 0 29 5 39 15 11 11 16 23 15 42-1 13-4 21-13 29-9 9-19 13-48 20-47 12-68 25-80 49-6 12-8 22-8 37 0 16 2 28 8 40 12 23 30 37 58 44l5 1 0 10c0 8 1 10 3 14 4 6 8 8 20 8 9 0 11-1 14-3z" horiz-adv-x="987" />
<glyph glyph-name="leaf" unicode="&#xe805;" d="m714 457q0 15-10 25t-25 11q-96 0-178-28t-145-75-131-122q-11-12-11-25 0-15 11-25t25-11q13 0 25 11 15 13 41 39t38 37q76 69 150 98t175 29q14 0 25 11t10 25z m286 111q0-53-11-108-26-125-103-214t-200-149q-119-61-244-61-83 0-160 27-8 2-49 23t-53 21q-9 0-22-18t-25-39-30-39-33-18q-17 0-29 6t-17 13-15 24q-1 2-3 6t-3 6-2 5-1 7q0 20 17 41t38 37 38 31 18 27q0 2-8 21t-9 25q-5 28-5 58 0 64 24 123t66 103 96 77 113 53q31 10 81 15t100 5 100 3 91 13 64 32l16 16t17 16 15 11 20 9 24 3q22 0 40-26t26-63 14-69 4-53z" horiz-adv-x="1000" />
<glyph glyph-name="group" unicode="&#xe806;" d="m322 350c-28 42-44 92-44 143 0 12 1 24 3 37-24-9-48-13-73-13-73 0-129 47-141 47-69 0-67-151-67-197 0-62 51-88 105-88h73c36 44 87 69 144 71z m581-356c0 127-29 320-188 320-18 0-86-77-194-77-109 0-176 77-194 77-159 0-188-193-188-320 0-90 58-144 145-144h474c87 0 145 54 145 144z m-556 713c0 79-62 143-139 143-76 0-139-64-139-143s63-143 139-143c77 0 139 65 139 143z m382-214c0 118-93 214-208 214s-208-96-208-214 93-214 208-214 208 96 208 214z m313-126c0 46 2 197-67 197-12 0-68-47-141-47-25 0-49 4-73 13 2-13 3-25 3-37 0-51-16-101-44-143 57-2 108-27 144-71h73c54 0 105 26 105 88z m-70 340c0 79-62 143-138 143s-139-64-139-143 62-143 139-143 138 65 138 143z" horiz-adv-x="1042" />
<glyph glyph-name="pencil" unicode="&#xe807;" d="m203-7l50 51-131 131-51-51v-60h72v-71h60z m291 518q0 12-12 12-5 0-9-4l-303-302q-4-4-4-10 0-12 13-12 5 0 9 4l303 302q3 4 3 10z m-30 107l232-232-464-465h-232v233z m381-54q0-29-20-50l-93-93-232 233 93 92q20 21 50 21 29 0 51-21l131-131q20-22 20-51z" horiz-adv-x="857.1" />
<glyph glyph-name="location" unicode="&#xe808;" d="m511 517c0-92-76-167-170-167s-171 75-171 167c0 91 77 166 171 166s170-75 170-166z m171 0c0 184-153 333-341 333-188 0-341-149-341-333 0-40 5-81 22-117l243-504c13-29 44-46 76-46 32 0 62 17 76 46l243 504c17 36 22 77 22 117z" horiz-adv-x="682" />
<glyph glyph-name="gym" unicode="&#xe809;" d="m309 755c-21-7-46-31-56-53l-8-18 0-334 0-334 8-18c16-35 53-59 91-59 39 0 76 24 91 59l9 18 0 334 0 334-9 18c-10 22-35 46-57 54-20 6-50 6-69-1z m874 0c-21-7-47-31-57-53l-8-18 0-334 0-334 8-18c16-35 53-59 92-59 38 0 75 24 91 59l8 18 0 334 0 334-8 18c-10 22-36 46-58 54-19 6-49 6-68-1z m-1010-156c-39-14-67-55-67-99 0-13 0-13-10-9-23 8-55-9-62-34-4-17-4-197 0-214 7-24 39-42 61-34l10 3 2-22c2-12 5-28 9-37 12-26 41-50 69-55l10-2 0 254c0 239 0 253-6 253-3 0-10-2-16-4z m1193-249l0-254 11 2c28 5 57 29 69 55 3 9 7 25 9 37l2 22 9-3c23-8 55 10 61 34 5 17 5 197 0 214-6 24-38 42-61 34l-9-3-2 22c-2 12-6 28-9 37-12 26-41 50-69 55l-11 3 0-255z m-873 0l0-99 288 0 288 0 0 99 0 99-288 0-288 0 0-99z" horiz-adv-x="1562" />
<glyph glyph-name="suitcases" unicode="&#xe80a;" d="m498 848c-11-3-19-10-25-21l-2-6-1-94 0-94 39 0 39 0 0 70 0 69 139 0 139 0 0-69 0-70 38 0 39 0 0 94 0 94-4 7c-4 9-10 14-19 19l-6 2-186 1c-151 0-186 0-190-2z m-98-249c-10-3-17-10-22-19-2-5-2-7-2-46l-1-41 36 0c32 0 36 0 44-2 24-6 44-27 50-51 1-6 2-16 2-51l0-45 78 0c88 0 88 0 103-7 11-5 23-18 29-29 8-16 7 0 7-227 0-222 1-213-5-224-1-3-2-5-2-5 0-1 57-1 128-1l128 1 6 3c7 3 12 9 16 16l2 5 0 350 0 350-2 5c-4 7-9 12-15 15l-6 3-286 1c-157 0-286-1-288-1z m-158-141c-9-3-16-9-21-19-3-5-3-5-3-50l0-45 36 0 36 0 0 22 0 22 56 0 55 0 0-22 0-22 36 0 36 0 0 45 0 45-3 5c-3 7-10 14-17 18l-6 2-100 1c-89 0-100 0-105-2z m-219-149c-12-4-19-13-22-24-1-4-1-64-1-208l1-202 2-5c3-7 9-13 16-16l6-3 321 0 321 0 5 2c7 4 12 9 16 15l3 6 0 207 0 206-3 5c-4 7-9 12-16 15l-6 4-319 0c-304 0-319 0-324-2z m423-107c9-3 139-100 145-108 6-8 9-17 9-27 0-12-3-19-17-38-15-21-18-24-28-29-8-4-9-4-19-4-10 0-12 1-17 3-7 3-132 95-140 103-3 2-7 8-9 12-4 8-4 9-4 20 0 14 2 18 19 41 12 15 15 19 21 23 4 2 7 4 7 4 1 0 3 1 6 2 8 2 19 1 27-2z m-187-121c22-6 38-22 41-42 2-15-3-34-14-49-15-20-36-34-62-40-12-3-31-3-41-1-36 10-51 41-36 75 11 26 42 50 72 56 11 3 31 3 40 1z" horiz-adv-x="998" />
<glyph glyph-name="marketing" unicode="&#xe80b;" d="m330 267h-165v-250h165v250z m247 333h-165v-583h165v583z m247-167h-164v-416h164v416z m248 250h-165v-666h165v666z m82-729c0-11-9-21-20-21h-1031c-11 0-21 10-21 21v792c0 11 10 21 21 21h1031c11 0 20-10 20-21v-792z m83 792c0 57-47 104-103 104h-1031c-57 0-103-47-103-104v-792c0-57 46-104 103-104h1031c56 0 103 47 103 104v792z" horiz-adv-x="1237" />
<glyph glyph-name="email" unicode="&#xe80c;" d="m1397 528c-24-24-50-44-78-62-130-81-261-161-388-245-66-44-147-98-232-98h-1 0c-85 0-166 54-232 98-127 84-258 165-387 245-29 18-56 38-79 62v-564c0-63 56-114 125-114h1147c69 0 125 51 125 114v564z m0 208c0 63-57 114-125 114h-1147c-84 0-125-60-125-129 0-65 79-145 134-179 121-77 243-154 364-231 51-32 136-97 200-97h0 1c63 0 149 65 200 97 121 77 243 154 364 231 69 43 134 115 134 194z" horiz-adv-x="1397" />
<glyph glyph-name="sitemap" unicode="&#xe80d;" d="m1176 121c0 34-29 62-63 62h-63v125c0 46-38 84-84 84h-336v125h63c35 0 63 28 63 62v209c0 34-28 62-63 62h-210c-35 0-63-28-63-62v-209c0-34 28-62 63-62h63v-125h-336c-46 0-84-38-84-84v-125h-63c-35 0-63-28-63-62v-208c0-35 28-63 63-63h210c35 0 63 28 63 63v208c0 34-28 62-63 62h-63v125h336v-125h-63c-35 0-63-28-63-62v-209c0-34 28-62 63-62h210c35 0 63 28 63 62v209c0 34-28 62-63 62h-63v125h336v-125h-63c-35 0-63-28-63-62v-209c0-34 28-62 63-62h210c34 0 63 28 63 62v209z" horiz-adv-x="1176" />
<glyph glyph-name="briefcase" unicode="&#xe80e;" d="m428 683v84h343v-84h-343z m772-416h-450v-104c0-23-20-42-43-42h-214c-24 0-43 19-43 42v104h-450v-313c0-57 48-104 107-104h985c59 0 107 47 107 104v313z m-515 0h-171v-84h171v84z m515 312c0 58-49 104-108 104h-235v105c0 34-29 62-64 62h-386c-35 0-64-28-64-62v-105h-236c-59 0-107-46-107-104v-250h1200v250z" horiz-adv-x="1199" />
<glyph glyph-name="laptop" unicode="&#xe80f;" d="m325 50h849c69 0 125 56 125 125v550c0 69-56 125-125 125h-849c-69 0-125-56-125-125v-550c0-69 56-125 125-125z m-25 675c0 13 12 25 25 25h849c14 0 25-12 25-25v-550c0-13-11-25-25-25h-849c-13 0-25 12-25 25v550z m1074-725h-1249-125v-75c0-42 56-75 125-75h1249c69 0 125 33 125 75v75h-125z m-562-75h-125c-7 0-12 5-12 12s5 13 12 13h125c7 0 13-6 13-13s-6-12-13-12z" horiz-adv-x="1499" />
<glyph glyph-name="dollar" unicode="&#xe810;" d="m508 439c-7-7-11-16-13-26-2-11 0-22 5-35l69 70c-10 5-21 7-32 5-11-2-21-7-29-14z m508 402c-9 9-53 8-93 8l-169 0c-39 0-92 3-116-2-13-3-27-9-38-20l-573-561c0 0-63-58 3-123l267-268c0 0 58-58 118 2l568 568c0 0 43 52 43 93l0 212c0 39-2 82-10 91z m-369-523l-58 44c13 19 16 38 9 56l-79-78c24-41 34-74 32-99-2-26-14-49-36-71-24-24-52-37-83-39-31-2-61 8-91 30l-38-37-29 29 37 36c-21 26-31 54-31 83 0 28 12 58 34 88l58-46c-9-13-14-26-16-40-2-14-1-26 3-36l84 83c-19 34-27 65-24 92 3 27 15 52 37 73 22 22 47 34 76 35s55-9 81-30l20 20 29-29-20-20c18-23 28-47 29-72 0-24-8-49-24-72z m276 337c-25-25-66-25-90 0-25 25-25 66 0 91 24 25 65 25 90 0 25-25 25-66 0-91z m-538-449c12-9 25-12 38-11 14 1 26 7 36 17 9 9 14 19 15 31 1 12-2 25-11 41l-78-78z" horiz-adv-x="1026" />
<glyph glyph-name="time" unicode="&#xe811;" d="m592 850c-161 0-303-80-389-203 18-12 35-27 52-48 64 96 168 164 288 178l49-83 49 83c185-22 332-169 354-354l-82-49 82-49c-15-124-85-230-186-294 6-14 10-29 11-45 0-11-1-22-3-32 149 81 251 239 251 420 0 263-213 476-476 476z m122-784c-110 88-141 45-191-5-34-35-122 38-198 114-76 76-149 164-114 199 50 49 93 80 5 190-88 110-147 25-195-23-56-56-3-263 202-468 205-205 412-258 468-202 48 48 132 107 23 195z m-335 234c0 97 115 114 115 152 0 19-15 27-29 27-25 0-39-28-39-28l-48 32c0 0 24 57 93 57 43 0 90-25 90-81 0-83-106-99-108-133h112v-55h-183c-1 10-3 20-3 29z m213 74l102 161h79v-146h32v-54h-32v-64h-64v64h-117v39l0 0z m117 15v59c0 14 3 29 3 29h-1c0 0-6-16-13-27l-40-61v0l51 0 0 0z" horiz-adv-x="1068" />
<glyph glyph-name="hand" unicode="&#xe812;" d="m1229 476c-67 6-475 21-534 0-58-21-327-243-393-292-66-49 19-141 97-87 77 53 201 132 255 168 54 36 117-30 70-77-36-34-245-189-289-191-45-2-245 0-356 0-111 0-100-137 0-137 67 0 492-23 533 0 42 24 356 269 394 278 39 8 131 0 223 0s67 331 0 338z m-964-129c99 0 179 82 179 182 0 100-179 321-179 321s-178-221-178-321c0-100 80-182 178-182z" horiz-adv-x="1288" />
<glyph glyph-name="helmet" unicode="&#xe813;" d="m95 146c0 0 31-7 82-16l1 136c0 11 9 19 19 17l108-17c10-2 18-12 18-23l0-137c40-6 83-12 128-18l1 134c0 11 8 19 19 17l107-17c11-1 19-12 19-23l-1-127c124-12 244-16 325-1 10 2 5 135-121 316-21 32 166 6 204-293 137 52 238 177 220 278-43 246-200 407-444 458-434 90-741-129-779-553-7-77 13-116 94-131z m1209 150c-103-231-295-292-510-292-205 0-636 78-719 97-83 20-88 7-52-13 219-126 768-261 1137-235 147 11 240 127 292 259 39 102-127 228-148 184z" horiz-adv-x="1458" />
<glyph glyph-name="chat" unicode="&#xe814;" d="m500 850c-276 0-500-192-500-429 0-236 224-429 500-429 53 0 106 8 158 23l170-165v248c110 82 172 199 172 323 0 237-224 429-500 429z m-185-473c-24 0-43 19-43 41 0 23 19 42 43 42 23 0 42-19 42-42 0-22-19-41-42-41z m185 0c-24 0-43 19-43 41 0 23 19 42 43 42 24 0 43-19 43-42 0-22-19-41-43-41z m185 0c-23 0-42 19-42 41 0 23 19 42 42 42 24 0 43-19 43-42 0-22-19-41-43-41z" horiz-adv-x="1000" />
<glyph glyph-name="info" unicode="&#xe815;" d="m428-14c0 25-19 46-43 46h-42v409c0 25-20 45-43 45h-257c-24 0-43-20-43-45v-91c0-25 19-45 43-45h43v-273h-43c-24 0-43-21-43-46v-91c0-24 19-45 43-45h342c24 0 43 21 43 45v91z m-85 819c0 24-20 45-43 45h-172c-23 0-42-21-42-45v-137c0-25 19-45 42-45h172c23 0 43 20 43 45v137z" horiz-adv-x="428" />
<glyph glyph-name="tick" unicode="&#xe816;" d="m1273 647c0-23-7-44-22-60l-670-712c-15-16-36-25-57-25-19 0-40 9-55 25l-447 475c-15 16-22 37-22 59 0 22 7 45 22 61l112 118c15 15 35 25 56 25 21 0 41-10 55-25l279-297 503 534c15 16 35 25 56 25 21 0 41-9 56-25l112-118c15-16 22-38 22-60z" horiz-adv-x="1273" />
<glyph glyph-name="question" unicode="&#xe817;" d="m476 69c0 17-14 31-31 31h-188c-17 0-31-14-31-31v-188c0-17 14-31 31-31h188c17 0 31 14 31 31v188z m248 469c0 178-188 312-356 312-159 0-279-68-363-208-9-14-6-31 8-41l128-98c6-4 13-6 20-6 8 0 18 5 24 12 46 58 65 77 84 90 17 12 49 23 85 23 63 0 120-39 120-83 0-50-25-76-85-103-69-31-163-112-163-207v-35c0-17 11-44 28-44h188c18 0 31 20 31 38l0 0c0 22 29 76 76 103 74 41 175 98 175 247z" horiz-adv-x="724" />
<glyph glyph-name="search" unicode="&#xe818;" d="m688 427c0-148-120-269-268-269s-267 121-267 269c0 148 120 269 267 269s268-121 268-269z m305-500c0 20-8 40-22 54l-204 206c48 70 74 155 74 240 0 234-188 423-421 423-232 0-420-189-420-423 0-234 188-423 420-423 85 0 169 26 239 74l204-205c14-15 34-23 54-23 42 0 76 35 76 77z" horiz-adv-x="993" />
<glyph glyph-name="close" unicode="&#xe819;" d="m997 45c0 21-8 42-23 58l-247 247 247 248c15 15 23 36 23 57 0 21-8 42-23 57l-114 114c-15 16-36 24-57 24-21 0-42-8-57-24l-247-247-247 247c-15 16-36 24-57 24s-42-8-57-24l-114-114c-16-15-24-36-24-57 0-21 8-42 24-58l246-247-246-247c-16-16-24-37-24-58 0-21 8-42 24-57l114-115c15-15 36-23 57-23s42 8 57 23l247 248 246-248c15-15 37-23 57-23 21 0 42 8 58 23l114 115c15 15 23 36 23 57z" horiz-adv-x="997" />
<glyph glyph-name="up" unicode="&#xe81a;" d="m0-8c0-13 7-29 17-39l86-86c11-10 26-17 40-17 14 0 29 7 39 17l676 676 676-676c10-10 26-17 39-17 16 0 29 7 40 17l86 86c10 10 17 26 17 39 0 14-7 30-17 40l-802 801c-10 10-25 17-39 17-14 0-29-7-40-17l-801-801c-10-10-17-26-17-40z" horiz-adv-x="1716" />
<glyph glyph-name="down" unicode="&#xe81b;" d="m1716 707c0 14-7 30-17 40l-86 86c-11 10-26 17-40 17-14 0-29-7-40-17l-675-675-676 675c-10 10-26 17-39 17-16 0-29-7-40-17l-86-86c-10-10-17-26-17-40s7-29 17-39l801-801c11-10 26-17 40-17 14 0 29 7 39 17l801 801c11 10 18 26 18 39z" horiz-adv-x="1716" />
<glyph glyph-name="circle" unicode="&#xe81c;" d="m311 50c0 50-41 90-91 90-50 0-90-40-90-90s40-90 90-90c50 0 91 40 91 90z m270-120c0 44-36 80-80 80-45 0-80-36-80-80s35-80 80-80c44 0 80 36 80 80z m-381 400c0 55-45 100-100 100s-100-45-100-100c0-55 45-100 100-100s100 45 100 100z m652-280c0 39-32 70-71 70s-70-31-70-70 32-70 70-70 71 31 71 70z m-521 560c0 61-50 110-111 110s-110-49-110-110c0-61 50-110 110-110s111 49 111 110z m290 120c0 66-54 120-120 120s-120-54-120-120c0-66 54-120 120-120s120 54 120 120z m341-400c0 33-27 60-60 60-34 0-60-27-60-60s26-60 60-60c33 0 60 27 60 60z m-130 280c0 28-23 50-51 50s-50-22-50-50c0-27 23-50 50-50s51 23 51 50z" horiz-adv-x="962" />
<glyph glyph-name="building" unicode="&#xe81d;" d="m533 850l-533-214v-72h71c0-19 17-35 39-35h847c22 0 39 16 39 35h71v72l-534 214z m-391-357v-429h-32c-22 0-39-16-39-35v-36h925v36c0 19-17 35-39 35h-32v429h-143v-429h-71v429h-142v-429h-71v429h-142v-429h-71v429h-143z m887-536h-991c-21 0-38-16-38-36v-71h1067v71c0 20-17 36-38 36z" horiz-adv-x="1067" />
<glyph glyph-name="verification" unicode="&#xe81e;" d="m414 779h-22c-11 0-21 9-21 21v1c0 27-22 49-49 49h-1c-28 0-50-22-50-49v-1c0-12-9-21-21-21h-22c-23 0-42-19-42-43v-1c0-23 19-42 42-42h186c24 0 43 19 43 42v1c0 24-19 43-43 43z m-93 0c-12 0-21 9-21 21 0 12 9 21 21 21 12 0 22-9 22-21 0-12-10-21-22-21z m96-829h-360c-31 0-57 26-57 57v686c0 31 26 57 43 57h116c-1-5-2-10-2-15 0-39 32-71 71-71h186c40 0 71 32 71 72 0 5 0 10-1 14h87c46 0 71-26 71-57v-429c-4 0-9 0-14 0-20 0-39-2-57-7v336h-500v-572h329c2-25 8-49 17-71z m211 271c-102 0-185-83-185-185s83-186 185-186 186 83 186 186-83 185-186 185z m121-147l-114-129c-5-6-13-9-21-9-6 0-13 2-18 6l-71 57c-13 10-15 28-5 40 10 13 28 15 40 5l51-40 96 108c10 12 28 13 40 2 12-10 13-28 2-40z m-249 276h-229c-8 0-14 6-14 14v15c0 8 6 14 14 14h229c8 0 14-6 14-14v-15c0-8-6-14-14-14z m0 129h-229c-8 0-14 6-14 14v14c0 8 6 14 14 14h229c8 0 14-6 14-14v-14c0-8-6-14-14-14z m-72-243h-157c-8 0-14 6-14 14v14c0 8 6 15 14 15h157c8 0 15-7 15-15v-14c0-8-7-14-15-14z m-28-129h-129c-8 0-14 7-14 14v15c0 8 6 14 14 14h129c8 0 14-6 14-14v-15c0-7-6-14-14-14z m-170 424l-53-59c-2-3-6-4-10-4-3 0-6 1-8 3l-33 26c-5 5-6 13-2 19 5 5 13 6 19 2l23-19 44 50c5 5 13 6 19 1 5-5 6-13 1-19z m0-127l-53-59c-2-3-6-4-10-4-3 0-6 1-8 3l-33 26c-5 4-6 13-2 18 5 6 13 7 19 2l23-18 44 50c5 5 13 6 19 1 5-5 6-13 1-19z m0-121l-53-59c-2-3-6-5-10-5-3 0-6 1-8 3l-33 26c-5 5-6 13-2 19 5 6 13 6 19 2l23-19 44 50c5 6 13 6 19 1s6-13 1-18z m0-123l-53-59c-2-3-6-4-10-4-3 0-6 1-8 3l-33 26c-5 5-6 13-2 18 5 6 13 7 19 3l23-19 44 50c5 5 13 6 19 1s6-13 1-19z" horiz-adv-x="814" />
<glyph glyph-name="book" unicode="&#xe81f;" d="m1080 622c-10 13-24 22-39 28 1-12 1-25-3-37l-198-643c-7-23-36-37-60-37h-608c-36 0-82 8-95 46-5 14-4 20 1 28 6 8 16 10 25 10h572c84 0 101 22 132 122l181 590c9 31 5 61-12 85-17 22-44 36-75 36h-502c-11 0-22-3-33-6l0 2c-83 24-88-66-116-106-11-15-27-28-29-40-2-12 4-23 3-34-4-35-30-97-46-118-10-13-24-20-29-35-4-10 3-25 1-39-3-30-26-88-44-118-6-12-19-21-22-33-3-11 3-26 0-38-7-34-30-87-50-119-10-18-24-29-27-44-1-8 5-17 4-27 0-16-3-29-4-42-10-25-10-53 1-83 24-67 96-120 163-120h608c57 0 115 43 131 98l182 590c9 30 4 61-12 84z m-701-1l14 42c4 11 16 20 27 20h401c12 0 18-9 14-20l-13-42c-4-12-17-21-28-21h-401c-11 0-18 9-14 21z m-55-167l14 42c4 12 17 21 28 21h400c12 0 19-9 15-21l-14-42c-4-12-17-21-28-21h-400c-12 0-19 9-15 21z" horiz-adv-x="1096" />
<glyph glyph-name="left" unicode="&#xe820;" d="m0 350c0-8 4-17 10-23l474-467c6-6 16-10 24-10s17 4 23 10l51 50c6 6 10 15 10 23 0 8-4 17-10 23l-400 394 400 394c6 6 10 15 10 23 0 9-4 17-10 23l-51 50c-6 6-15 10-23 10s-18-4-24-10l-474-467c-6-6-10-15-10-23z" horiz-adv-x="592" />
<glyph glyph-name="right" unicode="&#xe821;" d="m592 350c0 8-4 17-10 23l-474 467c-6 6-15 10-23 10s-18-4-24-10l-51-50c-6-6-10-15-10-23 0-8 4-17 10-23l400-394-400-394c-6-6-10-15-10-23 0-9 4-17 10-23l51-50c6-6 15-10 24-10s17 4 23 10l474 467c6 6 10 15 10 23z" horiz-adv-x="592" />
<glyph glyph-name="play" unicode="&#xe822;" d="m912 330c21 11 21 29 0 40l-875 476c-20 10-37 1-37-22v-948c0-23 17-32 37-21l875 475z" horiz-adv-x="928" />
<glyph glyph-name="facebook" unicode="&#xe823;" d="m535 843v-147h-87q-48 0-65-20t-17-60v-106h164l-22-165h-142v-424h-171v424h-142v165h142v122q0 104 58 161t155 57q82 0 127-7z" horiz-adv-x="571.4" />
<glyph glyph-name="linkedin" unicode="&#xe824;" d="m195 501v-553h-184v553h184z m12 171q0-41-29-68t-75-27h-1q-46 0-74 27t-28 68q0 41 29 68t75 27 74-27 29-68z m650-407v-317h-183v296q0 59-23 92t-71 33q-35 0-58-19t-36-48q-6-17-6-45v-309h-184q1 223 1 361t0 165l-1 27h184v-80h-1q11 18 23 31t31 29 49 24 64 9q95 0 153-63t58-186z" horiz-adv-x="857.1" />
<glyph glyph-name="twitter" unicode="&#xe825;" d="m904 622q-37-54-90-93 0-8 0-23 0-73-21-145t-64-139-103-117-144-82-181-30q-151 0-276 81 19-3 43-3 126 0 224 77-59 2-105 36t-64 89q19-2 34-2 24 0 48 6-63 13-104 62t-41 115v2q38-21 82-23-37 25-59 64t-22 86q0 49 25 91 68-83 164-133t208-55q-5 21-5 41 0 75 53 127t127 53q79 0 132-57 61 12 114 44-20-64-79-100 52 6 104 28z" horiz-adv-x="928.6" />
<glyph glyph-name="youtube" unicode="&#xe826;" d="m542 156v-118q0-37-22-37-13 0-25 12v168q12 12 25 12 22 0 22-37z m188-1v-25h-50v25q0 38 25 38t25-38z m-539 122h60v52h-174v-52h59v-318h55v318z m161-318h50v276h-50v-211q-17-23-32-23-10 0-11 11-1 2-1 20v203h-50v-218q0-28 5-41 7-21 32-21 27 0 57 34v-30z m240 83v110q0 41-5 55-10 31-40 31-28 0-52-30v121h-50v-370h50v27q25-31 52-31 30 0 40 31 5 15 5 56z m188 6v7h-51q0-29-1-34-4-20-22-20-26 0-26 38v49h100v57q0 44-15 65-22 28-59 28-38 0-60-28-15-21-15-65v-96q0-44 16-65 22-29 60-29 40 0 60 30 10 15 12 30 1 5 1 33z m-339 509v117q0 39-24 39t-24-39v-117q0-39 24-39t24 39z m401-419q0-131-14-195-8-33-33-56t-57-25q-102-12-309-12t-310 12q-32 3-57 25t-32 56q-15 62-15 195 0 131 15 195 7 33 32 56t57 26q103 11 310 11t309-11q33-4 57-26t33-56q14-62 14-195z m-557 712h57l-67-223v-151h-56v151q-8 42-34 119-21 57-37 104h60l39-147z m207-186v-97q0-46-16-66-21-29-59-29-38 0-59 29-15 21-15 66v97q0 45 15 65 21 29 59 29 38 0 59-29 16-20 16-65z m187 91v-279h-51v31q-30-35-58-35-25 0-33 21-4 13-4 42v220h51v-205q0-19 0-20 2-12 12-12 15 0 32 24v213h51z" horiz-adv-x="857.1" />
<glyph glyph-name="plus" unicode="&#xe827;" d="m786 439v-107q0-22-16-38t-38-15h-232v-233q0-22-16-37t-38-16h-107q-22 0-38 16t-15 37v233h-232q-23 0-38 15t-16 38v107q0 23 16 38t38 16h232v232q0 22 15 38t38 16h107q23 0 38-16t16-38v-232h232q22 0 38-16t16-38z" horiz-adv-x="785.7" />
<glyph glyph-name="books" unicode="&#xe828;" d="m899 835c-37-7-67-14-68-15-2-1 19-96 22-99 2-3 136 22 142 26 3 3-20 103-25 103-2 0-34-7-71-15z m-899-42l0-53 106 0 105 0 0 53 0 52-105 0-106 0 0-52z m592 0l0-53 105 0 106 0 0 53 0 52-106 0-105 0 0-52z m333-104c-32-6-60-14-61-15-3-3 136-688 141-696 3-6 142 24 142 30 0 6-136 674-141 687-3 11-10 10-81-6z m131-508c31-12 50-55 41-88-5-18-28-41-40-41-34 0-68 49-59 87 3 17 18 36 31 41 13 6 15 6 27 1z m-1056 160l0-358 106 0 105 0 0 358 0 358-105 0-106 0 0-358z m140-172c38-24 39-80 4-107-47-37-115 8-102 67 9 42 63 64 98 40z m452 498l0-33 105 0 106 0 0 33 0 32-106 0-105 0 0-32z m-340-70l0-36 15-7c47-19 155-26 208-14 53 13 53 12 53 56l0 38-138 0-138 0 0-37z m340-256l0-252 105 0 106 0 0 252 0 252-106 0-105 0 0-252z m-340-84l0-256 11 2c82 24 188 26 246 5l19-6 0 255c0 241-1 255-8 251-48-19-176-20-236-3l-32 9 0-257z m340-244l0-30 105 0 106 0 0 30 0 30-106 0-105 0 0-30z m-235-35c-21-2-54-8-72-13l-33-10 0-50 0-50 138 0 138 0 0 50 0 51-16 7c-36 14-92 20-155 15z m722-32c-34-7-62-13-63-15-2-2 11-75 14-80 1-1 140 27 143 29 1 0-2 18-6 40-10 47-1 45-88 26z m-1079-50l0-41 106 0 105 0 0 41 0 41-105 0-106 0 0-41z m592 0l0-41 105 0 106 0 0 41 0 41-106 0-105 0 0-41z" horiz-adv-x="1174" />
<glyph glyph-name="menu" unicode="&#xe829;" d="m1324 0c0 27-25 50-55 50h-1214c-30 0-55-23-55-50v-100c0-27 25-50 55-50h1214c30 0 55 23 55 50v100z m0 400c0 27-25 50-55 50h-1214c-30 0-55-23-55-50v-100c0-27 25-50 55-50h1214c30 0 55 23 55 50v100z m0 400c0 27-25 50-55 50h-1214c-30 0-55-23-55-50v-100c0-27 25-50 55-50h1214c30 0 55 23 55 50v100z" horiz-adv-x="1324" />
<glyph glyph-name="building-filled" unicode="&#xe82a;" d="m750 850q15 0 25-11t11-25v-928q0-15-11-25t-25-11h-714q-15 0-25 11t-11 25v928q0 15 11 25t25 11h714z m-464-161v-35q0-8 5-13t13-5h35q8 0 13 5t5 13v35q0 8-5 13t-13 5h-35q-8 0-13-5t-5-13z m0-143v-35q0-8 5-13t13-5h35q8 0 13 5t5 13v35q0 8-5 13t-13 5h-35q-8 0-13-5t-5-13z m0-143v-35q0-8 5-13t13-5h35q8 0 13 5t5 13v35q0 8-5 13t-13 5h-35q-8 0-13-5t-5-13z m0-142v-36q0-8 5-13t13-5h35q8 0 13 5t5 13v36q0 7-5 12t-13 5h-35q-8 0-13-5t-5-12z m-72-179v36q0 8-5 13t-13 5h-35q-8 0-13-5t-5-13v-36q0-8 5-13t13-5h35q8 0 13 5t5 13z m0 143v36q0 7-5 12t-13 5h-35q-8 0-13-5t-5-12v-36q0-8 5-13t13-5h35q8 0 13 5t5 13z m0 143v35q0 8-5 13t-13 5h-35q-8 0-13-5t-5-13v-35q0-8 5-13t13-5h35q8 0 13 5t5 13z m0 143v35q0 8-5 13t-13 5h-35q-8 0-13-5t-5-13v-35q0-8 5-13t13-5h35q8 0 13 5t5 13z m0 142v36q0 8-5 13t-13 5h-35q-8 0-13-5t-5-13v-36q0-7 5-12t13-5h35q8 0 13 5t5 12z m286-714v107q0 8-5 13t-13 5h-178q-8 0-13-5t-5-13v-107q0-8 5-13t13-5h178q8 0 13 5t5 13z m0 286v36q0 7-5 12t-13 5h-36q-7 0-12-5t-5-12v-36q0-8 5-13t12-5h36q8 0 13 5t5 13z m0 143v35q0 8-5 13t-13 5h-36q-7 0-12-5t-5-13v-35q0-8 5-13t12-5h36q8 0 13 5t5 13z m0 143v35q0 8-5 13t-13 5h-36q-7 0-12-5t-5-13v-35q0-8 5-13t12-5h36q8 0 13 5t5 13z m0 142v36q0 8-5 13t-13 5h-36q-7 0-12-5t-5-13v-36q0-7 5-12t12-5h36q8 0 13 5t5 12z m143-571v36q0 8-5 13t-13 5h-36q-8 0-13-5t-5-13v-36q0-8 5-13t13-5h36q8 0 13 5t5 13z m0 143v36q0 7-5 12t-13 5h-36q-8 0-13-5t-5-12v-36q0-8 5-13t13-5h36q8 0 13 5t5 13z m0 143v35q0 8-5 13t-13 5h-36q-8 0-13-5t-5-13v-35q0-8 5-13t13-5h36q8 0 13 5t5 13z m0 143v35q0 8-5 13t-13 5h-36q-8 0-13-5t-5-13v-35q0-8 5-13t13-5h36q8 0 13 5t5 13z m0 142v36q0 8-5 13t-13 5h-36q-8 0-13-5t-5-13v-36q0-7 5-12t13-5h36q8 0 13 5t5 12z" horiz-adv-x="857.1" />
<glyph glyph-name="credit-card" unicode="&#xe82b;" d="m982 779q37 0 63-27t26-63v-678q0-37-26-63t-63-27h-893q-36 0-63 27t-26 63v678q0 37 26 63t63 26h893z m-893-72q-7 0-12-5t-6-13v-125h929v125q0 8-5 13t-13 5h-893z m893-714q7 0 13 5t5 13v339h-929v-339q0-8 6-13t12-5h893z m-839 71v72h143v-72h-143z m214 0v72h214v-72h-214z" horiz-adv-x="1071.4" />
<glyph glyph-name="calendar" unicode="&#xe82c;" d="m71-79h161v161h-161v-161z m197 0h178v161h-178v-161z m-197 197h161v178h-161v-178z m197 0h178v178h-178v-178z m-197 214h161v161h-161v-161z m411-411h179v161h-179v-161z m-214 411h178v161h-178v-161z m428-411h161v161h-161v-161z m-214 197h179v178h-179v-178z m-196 482v161q0 7-6 12t-12 6h-36q-7 0-12-6t-6-12v-161q0-7 6-13t12-5h36q7 0 12 5t6 13z m410-482h161v178h-161v-178z m-214 214h179v161h-179v-161z m214 0h161v161h-161v-161z m18 268v161q0 7-5 12t-13 6h-35q-8 0-13-6t-5-12v-161q0-7 5-13t13-5h35q8 0 13 5t5 13z m215 36v-715q0-29-22-50t-50-21h-786q-29 0-50 21t-21 50v715q0 29 21 50t50 21h72v54q0 36 26 63t63 26h36q37 0 63-26t26-63v-54h214v54q0 36 27 63t63 26h35q37 0 63-26t27-63v-54h71q29 0 50-21t22-50z" horiz-adv-x="928.6" />
<glyph glyph-name="ribbon" unicode="&#xe82d;" d="m251 847c-14-3-28-20-57-74l-27-53-33-17c-83-43-94-52-94-79 0-6 8-37 18-68l17-58-17-57c-10-31-18-62-18-69 0-24 11-35 67-64 28-15 52-28 52-30 0-1-35-73-78-160-42-87-77-160-77-163 0-12 13-10 73 10 35 12 64 20 67 19 3-1 14-28 24-60 19-59 28-76 37-71 3 2 41 76 86 166l80 162 18 0 17 0 81-162c45-90 83-164 86-166 8-5 18 12 37 71 10 32 21 59 24 60 3 1 32-7 66-19 61-20 74-22 74-10 0 3-35 76-78 163-42 87-77 159-77 160 0 2 24 15 52 30 56 29 67 40 67 64 0 7-8 38-18 69l-17 57 17 58c10 31 18 62 18 68 0 27-11 36-94 79l-33 17-28 53c-45 85-44 85-139 56l-55-16-58 17c-67 19-68 20-80 17z m209-95c70-20 132-71 162-132 22-43 29-73 30-117 0-49-6-77-28-121-30-64-87-112-158-136-40-13-114-13-154 0-45 15-77 35-110 68-25 25-34 38-48 68-22 44-28 72-28 121 1 44 8 74 30 117 35 72 113 128 195 140 22 4 88-1 109-8z m-123-80c-33-11-51-22-73-43-46-46-65-106-52-167 7-36 22-64 48-90 36-37 76-54 129-54 53 0 93 17 129 54 26 26 40 54 48 90 24 113-63 218-179 217-15 0-38-3-50-7z" horiz-adv-x="778" />
<glyph glyph-name="certificate" unicode="&#xe82e;" d="m57 845c-9-1-24-11-33-20l-17-17-1-415-1-415 10-16c6-8 17-20 24-25 13-10 17-10 236-10l223 0 1 34 2 34-214 0-212 0 0 392 0 393 264 0 264 0 0-184 0-184 11-4c8-4 16-4 35 2l24 8-1 192c-1 186-2 193-11 205-5 7-16 18-23 23-12 10-17 10-289 11-152 0-284-1-292-4z m95-194c-10-10-9-23 3-32 9-6 31-7 140-7 140 0 144 1 144 25 0 21-3 21-145 21-116 0-136 0-142-7z m8-109c-14-6-17-17-11-31l5-11 181 0c100 0 184 1 187 3 9 6 11 22 4 32-6 9-14 9-181 10-99 0-179-1-185-3z m414-181c-4-5-11-15-15-23-7-15-18-21-38-21-18 0-27-16-24-40 2-21 1-24-14-40-20-22-20-35 1-55 15-15 16-17 13-42-3-31 1-36 32-41 17-3 21-6 32-25 11-18 14-21 28-20 9 0 23 3 31 6 13 6 17 5 33-2 27-12 38-8 53 16 10 19 15 22 32 25 30 5 34 10 32 41-1 25 0 29 14 43 19 20 19 32-1 53-14 17-15 20-13 42 2 29-4 37-34 41-18 3-22 6-31 23-16 28-23 30-50 18l-23-11-19 10c-23 12-30 12-39 2z m83-98c22-10 35-30 36-53 0-35-26-61-62-61-17 0-23 3-38 18-15 15-18 21-18 38 0 37 23 62 60 65 3 0 13-3 22-7z m-106-309c0-78 2-99 7-101 3-1 21 12 41 30l34 31 33-29c19-17 37-30 42-30 6 0 7 10 7 98l0 98-12-9c-15-12-28-12-53-2-17 6-20 6-33 0-19-11-38-10-53 2l-13 9 0-97z" horiz-adv-x="804" />
<glyph glyph-name="degree" unicode="&#xe82f;" d="m348 834c-5-6-18-24-28-39-17-29-24-34-30-24-2 2-16 8-31 13-25 7-28 7-60-3-75-23-139-77-173-147-12-27-19-48-20-67-3-48 6-62 104-145 47-39 102-87 123-106l37-34-27-14c-40-19-78-32-116-37-19-2-36-6-39-9-8-8 0-22 17-34 40-28 40-23 4-58-27-27-31-34-27-41 9-13 77-11 131 5 23 7 42 12 43 12 0-1-5-20-12-43-16-54-18-122-5-131 7-4 14 0 41 27 35 36 30 36 58-4 12-17 26-25 34-17 3 3 7 20 9 39 5 38 18 76 37 116l14 27 34-37c19-21 67-76 106-123 83-98 97-108 145-104 63 4 146 62 185 128 39 65 47 120 23 150-5 7-9 14-9 15 0 2 13 11 29 21 39 25 50 36 50 51 0 20-12 28-72 47-77 24-166 59-215 86-35 18-54 34-110 89-57 57-71 73-92 112-28 51-63 137-88 218-10 30-21 58-25 63-11 13-33 12-45-2z m-41-180c31-38 81-95 110-126 30-32 53-60 53-63 0-2-32-36-71-75l-72-71-56 51c-30 28-87 78-125 110-69 57-77 65-77 81 0 18 36 80 58 102 27 28 84 58 108 58 14 0 21-7 72-67z m371-387c31-29 84-75 117-102 71-60 76-65 76-82 0-22-31-80-58-106-22-23-84-58-102-58-16 0-24 8-81 76-32 39-82 96-110 126l-51 56 71 72c39 39 73 71 75 71 3 0 31-23 63-53z" horiz-adv-x="1000" />
<glyph glyph-name="down-open" unicode="&#xe830;" d="m939 399l-414-413q-10-11-25-11t-25 11l-414 413q-11 11-11 26t11 25l92 92q11 11 26 11t25-11l296-296 296 296q11 11 25 11t26-11l92-92q11-11 11-25t-11-26z" horiz-adv-x="1000" />
<glyph glyph-name="left-open" unicode="&#xe831;" d="m653 682l-296-296 296-297q11-10 11-25t-11-25l-92-93q-11-10-25-10t-25 10l-414 415q-11 10-11 25t11 25l414 414q10 10 25 10t25-10l92-93q11-10 11-25t-11-25z" horiz-adv-x="714.3" />
<glyph glyph-name="right-open" unicode="&#xe832;" d="m618 361l-414-415q-11-10-25-10t-26 10l-92 93q-11 11-11 25t11 25l296 297-296 296q-11 11-11 25t11 25l92 93q11 10 26 10t25-10l414-414q10-11 10-25t-10-25z" horiz-adv-x="714.3" />
<glyph glyph-name="up-open" unicode="&#xe833;" d="m939 107l-92-92q-11-10-26-10t-25 10l-296 297-296-297q-11-10-25-10t-26 10l-92 92q-11 11-11 26t11 25l414 414q11 10 25 10t25-10l414-414q11-11 11-25t-11-26z" horiz-adv-x="1000" />
<glyph glyph-name="share" unicode="&#xe834;" d="m679 279q74 0 126-53t52-126-52-126-126-53-127 53-52 126q0 7 1 19l-201 100q-51-48-121-48-75 0-127 53t-52 126 52 126 127 53q70 0 121-48l201 100q-1 12-1 19 0 74 52 126t127 53 126-53 52-126-52-126-126-53q-71 0-122 48l-201-100q1-12 1-19t-1-19l201-100q51 48 122 48z" horiz-adv-x="857.1" />
</font>
</defs>
</svg>
