<?xml version="1.0" standalone="no"?>
<!DOCTYPE svg PUBLIC "-//W3C//DTD SVG 1.1//EN" "http://www.w3.org/Graphics/SVG/1.1/DTD/svg11.dtd" >
<svg xmlns="http://www.w3.org/2000/svg">
<metadata>Generated by IcoMoon</metadata>
<defs>
<font id="icomoon" horiz-adv-x="1024">
<font-face units-per-em="1024" ascent="960" descent="-64" />
<missing-glyph horiz-adv-x="1024" />
<glyph unicode="&#x20;" horiz-adv-x="512" d="" />
<glyph unicode="&#xe900;" glyph-name="chat" d="M510 928c-284.79 0-510-203.886-510-450 0-104.844 41.486-206.42 116.992-286.898 14.94-61.604-3.198-126.882-48.204-171.888-18.816-18.816-5.498-51.214 21.212-51.214 85.488 0 167.888 33.5 229.148 92.542 60.584-21.602 124.688-32.542 190.852-32.542 285.58 0 514 204.484 514 450 0 245.654-228.578 450-514 450zM510 87.6c-65.442 0-128.534 12.312-187.524 35.804-11.586 4.612-24.814 1.582-33.232-7.618-36.236-39.598-83.342-67.21-134.654-79.902 28.272 54.178 35.498 118.044 18.288 178.55-1.356 4.772-3.876 9.132-7.332 12.69-68.062 70.106-105.946 159.202-105.946 250.876 0 215.046 202.27 390.4 450.4 390.4 250.336 0 454.4-175.354 454.4-390.4s-204.064-390.4-454.4-390.4zM270 568c-49.626 0-90-40.374-90-90s40.374-90 90-90 90 40.374 90 90-40.374 90-90 90zM270 448c-16.542 0-30 13.458-30 30s13.458 30 30 30 30-13.458 30-30-13.458-30-30-30zM510 568c-49.626 0-90-40.374-90-90s40.374-90 90-90 90 40.374 90 90-40.374 90-90 90zM510 448c-16.542 0-30 13.458-30 30s13.458 30 30 30 30-13.458 30-30-13.458-30-30-30zM754 568c-49.626 0-90-40.374-90-90s40.374-90 90-90 90 40.374 90 90-40.374 90-90 90zM754 448c-16.542 0-30 13.458-30 30s13.458 30 30 30 30-13.458 30-30-13.458-30-30-30z" />
<glyph unicode="&#xe901;" glyph-name="date" d="M917.333 832h-64v64c0 11.792-9.542 21.333-21.333 21.333s-21.333-9.542-21.333-21.333v-64h-170.667v64c0 11.792-9.542 21.333-21.333 21.333s-21.333-9.542-21.333-21.333v-64h-170.667v64c0 11.792-9.542 21.333-21.333 21.333s-21.333-9.542-21.333-21.333v-64h-170.667v64c0 11.792-9.542 21.333-21.333 21.333s-21.333-9.542-21.333-21.333v-64h-64c-58.813 0-106.667-47.854-106.667-106.667v-640c0-58.813 47.854-106.667 106.667-106.667h810.667c58.833 0 106.667 47.854 106.667 106.667v640c0 58.813-47.833 106.667-106.667 106.667zM42.667 725.333c0 35.292 28.708 64 64 64h64v-64c0-11.792 9.542-21.333 21.333-21.333s21.333 9.542 21.333 21.333v64h170.667v-64c0-11.792 9.542-21.333 21.333-21.333s21.333 9.542 21.333 21.333v64h170.667v-64c0-11.792 9.542-21.333 21.333-21.333s21.333 9.542 21.333 21.333v64h170.667v-64c0-11.792 9.542-21.333 21.333-21.333s21.333 9.542 21.333 21.333v64h64c35.292 0 64-28.708 64-64v-106.667h-938.667zM981.333 85.333c0-35.292-28.708-64-64-64h-810.667c-35.292 0-64 28.708-64 64v490.667h938.667zM149.333 277.333h85.333c11.792 0 21.333 9.542 21.333 21.333s-9.542 21.333-21.333 21.333h-85.333c-11.792 0-21.333-9.542-21.333-21.333s9.542-21.333 21.333-21.333zM149.333 149.333h85.333c11.792 0 21.333 9.542 21.333 21.333s-9.542 21.333-21.333 21.333h-85.333c-11.792 0-21.333-9.542-21.333-21.333s9.542-21.333 21.333-21.333zM362.667 405.333h85.333c11.792 0 21.333 9.542 21.333 21.333s-9.542 21.333-21.333 21.333h-85.333c-11.792 0-21.333-9.542-21.333-21.333s9.542-21.333 21.333-21.333zM362.667 277.333h85.333c11.792 0 21.333 9.542 21.333 21.333s-9.542 21.333-21.333 21.333h-85.333c-11.792 0-21.333-9.542-21.333-21.333s9.542-21.333 21.333-21.333zM362.667 149.333h85.333c11.792 0 21.333 9.542 21.333 21.333s-9.542 21.333-21.333 21.333h-85.333c-11.792 0-21.333-9.542-21.333-21.333s9.542-21.333 21.333-21.333zM576 405.333h85.333c11.792 0 21.333 9.542 21.333 21.333s-9.542 21.333-21.333 21.333h-85.333c-11.792 0-21.333-9.542-21.333-21.333s9.542-21.333 21.333-21.333zM576 277.333h85.333c11.792 0 21.333 9.542 21.333 21.333s-9.542 21.333-21.333 21.333h-85.333c-11.792 0-21.333-9.542-21.333-21.333s9.542-21.333 21.333-21.333zM576 149.333h85.333c11.792 0 21.333 9.542 21.333 21.333s-9.542 21.333-21.333 21.333h-85.333c-11.792 0-21.333-9.542-21.333-21.333s9.542-21.333 21.333-21.333zM789.333 405.333h85.333c11.792 0 21.333 9.542 21.333 21.333s-9.542 21.333-21.333 21.333h-85.333c-11.792 0-21.333-9.542-21.333-21.333s9.542-21.333 21.333-21.333zM789.333 277.333h85.333c11.792 0 21.333 9.542 21.333 21.333s-9.542 21.333-21.333 21.333h-85.333c-11.792 0-21.333-9.542-21.333-21.333s9.542-21.333 21.333-21.333z" />
<glyph unicode="&#xe902;" glyph-name="instagram" d="M1022.998 658.941c-2.399 54.409-11.198 91.815-23.802 124.227-13.003 34.405-33.006 65.208-59.215 90.815-25.607 26.005-56.613 46.212-90.619 59.012-32.6 12.604-69.811 21.403-124.22 23.802-54.815 2.602-72.217 3.204-211.244 3.204s-156.429-0.602-211.041-3.001c-54.409-2.399-91.815-11.205-124.22-23.802-34.413-13.003-65.216-33.006-90.822-59.215-26.005-25.607-46.204-56.613-59.012-90.619-12.604-32.608-21.403-69.811-23.802-124.22-2.602-54.815-3.204-72.217-3.204-211.244s0.602-156.429 3.001-211.041c2.399-54.409 11.205-91.815 23.809-124.227 13.003-34.405 33.202-65.208 59.207-90.815 25.607-26.005 56.613-46.212 90.619-59.012 32.608-12.604 69.811-21.403 124.227-23.802 54.604-2.407 72.014-3.001 211.041-3.001s156.429 0.594 211.041 3.001c54.409 2.399 91.815 11.198 124.22 23.802 68.818 26.607 123.227 81.016 149.834 149.826 12.596 32.608 21.403 69.818 23.802 124.227 2.399 54.612 3.001 72.014 3.001 211.041s-0.203 156.429-2.602 211.041zM930.785 240.86c-2.204-50.010-10.604-77.015-17.605-95.019-17.206-44.61-52.612-80.016-97.222-97.222-18.004-7.001-45.204-15.401-95.019-17.597-54.011-2.407-70.209-3.001-206.837-3.001s-153.030 0.594-206.845 3.001c-50.010 2.196-77.015 10.596-95.019 17.597-22.2 8.205-42.407 21.207-58.808 38.211-17.003 16.605-30.006 36.609-38.211 58.808-7.001 18.004-15.401 45.212-17.597 95.019-2.407 54.011-3.001 70.217-3.001 206.845s0.594 153.030 3.001 206.837c2.196 50.010 10.596 77.015 17.597 95.019 8.205 22.207 21.207 42.407 38.414 58.816 16.597 17.003 36.601 30.006 58.808 38.203 18.004 7.001 45.212 15.401 95.019 17.605 54.011 2.399 70.217 3.001 206.837 3.001 136.831 0 153.030-0.602 206.845-3.001 50.010-2.204 77.015-10.604 95.019-17.605 22.2-8.197 42.407-21.199 58.808-38.203 17.003-16.605 30.006-36.609 38.211-58.816 7.001-18.004 15.401-45.204 17.605-95.019 2.399-54.011 3.001-70.209 3.001-206.837s-0.602-152.631-3.001-206.642zM513.899 710.951c-145.224 0-263.051-117.82-263.051-263.051s117.828-263.051 263.051-263.051c145.231 0 263.051 117.82 263.051 263.051s-117.82 263.051-263.051 263.051zM513.899 277.265c-94.214 0-170.635 76.413-170.635 170.635s76.421 170.635 170.635 170.635c94.222 0 170.635-76.413 170.635-170.635s-76.413-170.635-170.635-170.635zM848.769 721.352c0-33.913-27.498-61.41-61.418-61.41-33.913 0-61.41 27.498-61.41 61.41 0 33.921 27.498 61.41 61.41 61.41 33.921 0 61.418-27.49 61.418-61.41z" />
<glyph unicode="&#xe903;" glyph-name="phone-receiver" d="M882.298 247.296c-61.86 52.908-124.638 84.957-185.739 32.129l-36.484-31.929c-26.694-23.177-76.325-131.472-268.218 89.273-191.853 220.465-77.684 254.791-50.95 277.769l36.684 31.969c60.781 52.948 37.843 119.603-5.994 188.216l-26.454 41.559c-44.037 68.453-91.99 113.409-152.931 60.541l-32.928-28.772c-26.934-19.621-102.22-83.399-120.482-204.56-21.979-145.378 47.354-311.855 206.199-494.517 158.645-182.742 313.973-274.532 461.11-272.933 122.281 1.319 196.128 66.935 219.226 90.791l33.048 28.812c60.781 52.828 23.018 106.616-38.882 159.644l-37.204 32.009z" />
<glyph unicode="&#xe904;" glyph-name="pinterest" d="M245.891 403.562c1.281 3.195 14.102 52.461 15 55.797-20.016 30.117-42.25 128.742-25.195 208.797 18.398 117.461 142.875 175.203 260.398 175.203v0.219c147.141-0.094 257.281-81.961 257.398-222.953 0.094-110.359-66.391-256.234-179.914-256.234-0.031 0-0.055 0-0.086 0-40.516 0-91.813 18.375-105.266 36.422-15.523 20.797-19.336 46.461-11.133 73.883 20.102 64.164 45.734 141.023 48.727 192.273 2.773 48.367-31.547 79.836-76.055 79.836-33.492 0-76.992-19.453-98.672-74.117-17.906-45.414-17.523-92.961 1.172-145.344 7.289-20.477-32.313-153.969-45-197.438-31.523-107.984-74.68-244.609-65.453-320.695l8.906-73.211 44.734 58.625c61.906 81.039 125.914 290.664 142.969 341.672 50.422-65.297 155.422-67.172 167.664-67.172 150.367 0 320.875 149.313 316.039 357.125-4.242 182.242-137.617 333.75-377.266 333.75v-0.234c-227.953 0-361-121.672-393.57-275.406-29.828-142.547 36.508-251.039 114.602-280.797z" />
<glyph unicode="&#xe905;" glyph-name="twitter" d="M1024 765.504c-38.080-16.704-78.656-27.776-120.96-33.152 43.52 25.984 76.736 66.816 92.352 116.032-40.576-24.192-85.376-41.28-133.12-50.816-38.528 41.024-93.44 66.432-153.344 66.432-116.224 0-209.792-94.336-209.792-209.984 0-16.64 1.408-32.64 4.864-47.872-174.528 8.512-328.96 92.16-432.704 219.584-18.112-31.424-28.736-67.392-28.736-106.112 0-72.704 37.44-137.152 93.248-174.464-33.728 0.64-66.816 10.432-94.848 25.856 0-0.64 0-1.472 0-2.304 0-102.016 72.768-186.752 168.192-206.272-17.088-4.672-35.712-6.912-55.040-6.912-13.44 0-27.008 0.768-39.744 3.584 27.2-83.136 104.384-144.256 196.16-146.24-71.424-55.872-162.112-89.536-260.288-89.536-17.216 0-33.728 0.768-50.24 2.88 92.992-59.968 203.2-94.208 322.048-94.208 386.304 0 597.504 320 597.504 597.376 0 9.28-0.32 18.24-0.768 27.136 41.664 29.568 76.672 66.496 105.216 108.992z" />
<glyph unicode="&#xe906;" glyph-name="arrow-right" d="M584.832 734.165c-7.769 8.036-18.647 13.026-30.69 13.026-23.564 0-42.667-19.103-42.667-42.667 0-12.043 4.989-22.92 13.014-30.678l183.18-183.18h-494.336c-23.564 0-42.667-19.103-42.667-42.667s19.103-42.667 42.667-42.667v0h494.336l-183.168-183.168c-7.41-7.665-11.977-18.12-11.977-29.641 0-23.564 19.103-42.667 42.667-42.667 11.521 0 21.976 4.567 29.653 11.989l255.988 255.988c7.718 7.721 12.492 18.386 12.492 30.165s-4.774 22.445-12.492 30.165v0z" />
<glyph unicode="&#xe907;" glyph-name="boat-anchor" d="M214.773 817c-8.765 8.498-20.732 13.736-33.923 13.736-26.928 0-48.757-21.829-48.757-48.757 0-13.242 5.279-25.251 13.847-34.038l-0.010 0.010c46.543-44.523 112.815 22.505 68.843 69.048zM192.016 770.531c-2.983-2.819-7.018-4.551-11.458-4.551-9.222 0-16.698 7.476-16.698 16.698 0 4.58 1.844 8.729 4.829 11.746l-0.001-0.001c2.983 2.819 7.018 4.551 11.458 4.551 9.222 0 16.698-7.476 16.698-16.698 0-4.58-1.844-8.729-4.829-11.746l0.001 0.001zM934.375 610.25c12.54 1.483 22.173 12.051 22.173 24.868 0 6.44-2.432 12.313-6.428 16.748l0.020-0.022c-69.858 76.562-122.218 77-127.952 77.016-6.086-0.197-11.296-3.758-13.849-8.876l-0.042-0.093c-21.968-44.937-14.203-108.703-7.609-142.719 2.372-11.44 12.366-19.915 24.34-19.915 7.423 0 14.086 3.257 18.636 8.42l0.024 0.027c0.535 0.662 1.346 1.082 2.256 1.082 0.357 0 0.699-0.065 1.014-0.183l-0.020 0.007c9.287-31.24 3.235-84.049-18.544-136.812-17.851-39.26-43.598-72.135-75.418-97.777l-0.507-0.396c-2.661-2.13-6.076-3.418-9.793-3.418-4.178 0-7.976 1.628-10.793 4.285l0.008-0.007-306.968 279.75c-3.195 2.95-5.189 7.159-5.189 11.835 0 4.392 1.76 8.374 4.613 11.277l-0.002-0.002 87.289 87.984c10.011 10.179 16.192 24.151 16.192 39.568 0 31.172-25.27 56.442-56.442 56.442-15.349 0-29.267-6.127-39.442-16.068l0.011 0.010-88.085-88.78c-2.945-2.829-6.953-4.57-11.367-4.57s-8.422 1.742-11.373 4.576l0.006-0.005-22.352 22.531c-2.788 2.955-4.502 6.95-4.502 11.346 0 1.556 0.215 3.062 0.616 4.489l-0.028-0.117c2.172 8.386 3.419 18.013 3.419 27.932 0 36.537-16.922 69.122-43.356 90.346l-0.226 0.176c-72.278 59.889-189.404 4.010-187.405-90.456-0.001-0.179-0.002-0.391-0.002-0.603 0-64.061 51.931-115.992 115.992-115.992 9.158 0 18.069 1.061 26.615 3.068l-0.785-0.155c1.373 0.399 2.95 0.629 4.581 0.629 4.495 0 8.582-1.744 11.623-4.592l-0.009 0.009 22.609-22.797c2.857-2.893 4.622-6.871 4.622-11.262 0-4.394-1.768-8.375-4.631-11.271l0.001 0.001-87.274-87.969c-10.636-10.281-17.24-24.675-17.24-40.612 0-31.179 25.276-56.455 56.455-56.455 15.285 0 29.151 6.074 39.316 15.941l-0.014-0.014 86.905 87.608c2.922 2.872 6.933 4.644 11.357 4.644 4.715 0 8.96-2.013 11.922-5.227l0.010-0.011 277.492-309.358c2.582-2.808 4.165-6.571 4.165-10.703 0-3.672-1.25-7.052-3.347-9.738l0.026 0.035c-47.225-60.631-120.239-99.259-202.275-99.259-9.773 0-19.417 0.548-28.905 1.615l1.164-0.106c-1.765 0.175-3.132 1.652-3.132 3.449 0 1.215 0.626 2.284 1.572 2.903l0.013 0.008c4.853 4.559 7.876 11.017 7.876 18.182 0 11.956-8.418 21.946-19.651 24.366l-0.164 0.030c-33.827 6.609-97.218 14.406-141.796-7.656-5.165-2.601-8.69-7.781-8.89-13.802l-0.001-0.026c-0.188-5.797 0.375-58.656 76.195-128.937 4.42-4.078 10.349-6.579 16.862-6.579 13.348 0 24.242 10.503 24.87 23.695l0.002 0.056c0.15 1.636 1.516 2.908 3.179 2.908 0.449 0 0.877-0.093 1.264-0.26l-0.021 0.008c122.057-50.2 252.608-2.829 361.962 49.033 26.282 13.455 57 22.407 89.517 24.96l0.842 0.053c27.185 2.153 48.648 23.936 50.29 51.068l0.007 0.152c0.633 14.301 2.36 27.778 5.114 40.878l-0.286-1.628c4.827 19.122 11.247 35.825 19.371 51.504l-0.62-1.317c51.342 110.372 98.244 241.66 48.31 364.53-0.357 3.084 0.035 3.877 4.019 4.5zM918.156 453.891c-13.513-74.708-36.094-141.419-66.977-203.259l1.961 4.337c-8.381-16.112-15.543-34.853-20.513-54.468l-0.393-1.829c-7.455-17.434 3.312-64.212-26.171-66.172-37.987-3.104-72.94-13.284-104.486-29.225l1.611 0.738c-56.922-29.036-122.949-51.736-192.403-64.697l-4.559-0.707c-9.924-1.183-21.417-1.858-33.068-1.858-38.251 0-74.803 7.277-108.346 20.523l2-0.696c-3.593 1.352-7.745 2.134-12.080 2.134-14.037 0-26.157-8.204-31.828-20.078l-0.091-0.213c-25.655 22.741-45.003 52.047-55.449 85.296l-0.364 1.345c16.722 4.429 35.92 6.973 55.712 6.973 15.443 0 30.525-1.549 45.098-4.499l-1.45 0.245c-2.457-4.699-3.899-10.264-3.899-16.166 0-18.347 13.933-33.44 31.795-35.275l0.151-0.013c9.284-1.062 20.044-1.668 30.946-1.668 92.231 0 174.331 43.377 227.012 110.843l0.479 0.638c6.345 8.037 10.178 18.312 10.178 29.484 0 12.365-4.695 23.633-12.4 32.118l-277.449 309.321c-8.582 9.5-20.822 15.557-34.48 15.936l-0.067 0.001c-0.513 0.020-1.116 0.032-1.721 0.032-13.165 0-25.057-5.446-33.549-14.207l-0.012-0.012-86.898-87.594c-4.367-4.109-10.265-6.633-16.753-6.633-13.515 0-24.472 10.956-24.472 24.472 0 7.229 3.134 13.725 8.118 18.205l0.022 0.020 87.264 87.952c8.585 8.686 13.888 20.632 13.888 33.816 0 13.181-5.3 25.123-13.885 33.813l0.005-0.005-22.601 22.782c-8.763 8.706-20.839 14.087-34.171 14.087-4.352 0-8.57-0.573-12.582-1.648l0.339 0.077c-6.020-1.531-12.931-2.409-20.047-2.409-46.73 0-84.612 37.882-84.612 84.612s37.882 84.612 84.612 84.612c46.73 0 84.612-37.882 84.612-84.612 0-7.139-0.884-14.071-2.549-20.693l0.124 0.584c-0.953-3.585-1.501-7.702-1.501-11.946 0-13.166 5.269-25.101 13.813-33.812l-0.008 0.008 22.352-22.531c8.824-8.499 20.844-13.734 34.086-13.734s25.262 5.235 34.101 13.749l-0.015-0.015 88.085 88.781c4.389 4.235 10.371 6.844 16.963 6.844 13.5 0 24.444-10.944 24.444-24.444 0-6.753-2.738-12.867-7.166-17.291v0l-87.288-87.984c-8.549-8.698-13.826-20.635-13.826-33.805 0-14.023 5.983-26.648 15.536-35.462l306.993-279.78c8.462-7.853 19.837-12.672 32.336-12.672 11.331 0 21.737 3.959 29.91 10.57l-0.090-0.070c67.451 54.023 110.274 136.373 110.274 228.726 0 11.127-0.622 22.109-1.832 32.913l0.121-1.327c-1.364 14.139-10.965 25.724-23.893 29.976l-0.247 0.070c-3.263 1.125-7.024 1.774-10.936 1.774-5.818 0-11.301-1.437-16.112-3.975l0.189 0.091c-2.71 13.271-4.262 28.525-4.262 44.141 0 19.961 2.535 39.331 7.3 57.804l-0.351-1.601c34.294-11.085 63.278-30.607 85.508-56.161l0.195-0.229c-12.086-5.784-20.286-17.916-20.286-31.963 0-4.319 0.775-8.456 2.194-12.282l-0.079 0.244c12.54-31.785 19.81-68.602 19.81-107.116 0-11.928-0.697-23.693-2.053-35.257l0.134 1.404z" />
<glyph unicode="&#xe908;" glyph-name="dollar" d="M557.249 511.984v227.528c51.164-8.84 96.423-29.346 134.512-58.7l-0.709 0.525c7.418-5.15 16.583-8.274 26.47-8.402h0.032c30.444 0 55.267 24.498 55.589 54.943 0 0.073 0.001 0.158 0.001 0.244 0 13.511-5.43 25.754-14.226 34.665l0.005-0.005c-54.423 46.815-124.477 76.85-201.387 81.401l-0.933 0.044v76.275c0 21.784-17.646 39.43-39.43 39.43-0.452 0.064-0.906 0.064-1.358 0.064-22.106 0.324-40.334-17.324-40.658-39.494v-73.689c-145.437-10.342-244.334-100.191-244.334-219.772 0-146.729 124.753-187.454 244.334-219.772v-258.557c-63.089 8.468-122.555 34.646-171.294 75.627-9.178 7.304-20.556 11.376-32.32 11.634-29.798-2.068-52.745-27.018-52.359-56.883 0-0.073-0.001-0.158-0.001-0.244 0-13.511 5.43-25.754 14.226-34.665l-0.005 0.005c64.181-57.977 148.746-94.469 241.769-97.588l0.627-0.017v-71.103c0-0.452 0.064-0.906 0.064-1.358 1.034-22.106 19.844-39.17 41.95-38.072 21.784 0 39.43 17.646 39.43 39.43v72.395c176.464 11.634 247.566 118.935 247.566 232.7 0.004 152.549-127.979 199.090-247.562 231.41zM475.805 532.668c-70.457 20.684-125.399 42.014-125.399 102.129s49.772 103.423 125.399 109.239v-211.368zM557.249 147.42v235.284c73.043-20.684 129.923-48.478 129.277-116.349 0-49.126-33.612-107.301-129.277-118.935z" />
<glyph unicode="&#xe909;" glyph-name="earth" d="M858.4 794.4c-92.4 92.6-215.6 143.6-346.4 143.6s-254-51-346.4-143.6-143.6-215.6-143.6-346.4 51-254 143.6-346.4 215.6-143.6 346.4-143.6 254 51 346.4 143.6 143.6 215.6 143.6 346.4-51 254-143.6 346.4zM957.6 470h-190c-1.8 75.6-12.4 148.4-31 213 36.2 18.6 70 42 101 69.6 70-74.8 114.6-173.6 120-282.6zM534 426h189.8c-1.6-69.6-11.2-136.2-27.8-195.8-51.2 20.6-105.8 32.6-162 35.2v160.6zM806 783.2c-25.6-22.6-53.6-41.8-83.2-57.8-7.6 21.2-16.2 41.2-25.8 60-19 37.6-40.6 68.4-64.4 92 65-18.2 124-50.8 173.4-94.2zM534 887.2c45.8-10.2 89-52.4 123.8-121.2 9.4-18.6 17.8-38.4 25.2-59.4-47-19.4-97.2-30.8-149-33.4v214zM696.2 664.4c16.4-59.2 25.8-125.4 27.4-194.6h-189.6v159.2c56.4 2.6 111 14.8 162.2 35.4zM490 470h-189.8c1.6 69.2 11 135.4 27.4 194.6 51.2-20.8 106-32.8 162.2-35.2v-159.4zM490.2 887.2v-214c-51.8 2.6-102.2 14-149 33.4 7.4 21 15.8 40.8 25.2 59.4 34.8 68.8 78 111 123.8 121.2zM391.6 877.4c-23.8-23.6-45.4-54.6-64.4-92-9.4-18.8-18-38.8-25.8-60-29.6 16-57.4 35.2-83.2 57.8 49.4 43.4 108.4 76 173.4 94.2zM186.6 752.6c31-27.6 64.8-50.8 101-69.6-18.6-64.8-29.4-137.4-31-213h-190c5.4 109 50 207.8 120 282.6zM66.6 426h190c1.8-76.2 12.6-149.2 31.4-214.2-36-18.6-69.8-41.6-100.6-69.2-70.6 75-115.4 174-120.8 283.4zM219 112c25.6 22.4 53.4 41.6 82.8 57.4 7.6-20.6 16-40.4 25.4-58.8 19-37.6 40.6-68.4 64.4-92.2-64.6 18.2-123.4 50.6-172.6 93.6zM490.2 8.8c-45.8 10.2-89 52.4-123.8 121.2-9.2 18.2-17.4 37.6-24.8 58.2 46.8 19.4 97 30.8 148.6 33.2v-212.6zM328.2 230.2c-16.6 59.6-26.2 126.2-27.8 195.8h189.8v-160.6c-56.2-2.4-110.8-14.4-162-35.2zM534.2 8.8v212.6c51.6-2.6 101.8-13.8 148.6-33.2-7.4-20.6-15.6-40-24.8-58.2-34.8-68.8-78-111-123.8-121.2zM632.8 18.6c23.8 23.6 45.4 54.6 64.4 92.2 9.4 18.4 17.8 38.2 25.4 58.8 29.4-15.8 57.2-35 82.8-57.4-49.2-43.2-108-75.6-172.6-93.6zM837.2 142.6c-30.8 27.4-64.6 50.6-100.6 69.2 18.8 65 29.6 138.2 31.4 214.2h190c-5.6-109.4-50.4-208.4-120.8-283.4z" />
<glyph unicode="&#xe90a;" glyph-name="facebook" d="M591.302-64v467.060h156.71l23.511 182.076h-180.221v116.229c0 52.699 14.574 88.612 90.229 88.612l96.335 0.040v162.855c-16.66 2.165-73.847 7.129-140.407 7.129-138.987 0-234.141-84.837-234.141-240.603v-134.261h-157.185v-182.076h157.185v-467.060h187.983z" />
<glyph unicode="&#xe90b;" glyph-name="helm" d="M778.4 448c-0.878 113.26-71.55 209.792-171.090 248.777l-1.83 0.631c-27.763 10.741-59.891 16.972-93.472 16.992h-0.008c-114.153-0.893-211.311-72.685-249.678-173.471l-0.618-1.849c-10.182-27.086-16.084-58.391-16.104-91.072v-0.008c0.879-113.242 71.533-209.761 171.050-248.753l1.83-0.631c27.774-10.756 59.916-16.997 93.512-17.016h0.008c114.153 0.893 211.311 72.685 249.678 173.471l0.618 1.849c10.182 27.086 16.084 58.391 16.104 91.072v0.008zM714.304 322.064l-71.904 71.936h101.76c-6.452-27.246-16.738-51.263-30.431-72.91l0.575 0.974zM537.848 211.016c-7.777-0.881-16.792-1.383-25.924-1.383s-18.147 0.502-27.018 1.481l1.094-0.098v133.928c7.801-2.129 16.758-3.352 26-3.352s18.199 1.223 26.717 3.516l-0.717-0.164v-133.904zM279.84 394h101.76l-71.936-71.936c-13.107 20.674-23.383 44.691-29.499 70.322l-0.325 1.614zM309.696 573.936l71.904-71.936h-101.76c6.452 27.246 16.738 51.263 30.431 72.91l-0.575-0.974zM486.152 684.984c7.777 0.881 16.792 1.383 25.924 1.383s18.147-0.502 27.018-1.481l-1.094 0.098v-133.928c-7.801 2.129-16.758 3.352-26 3.352s-18.199-1.223-26.717-3.516l0.717 0.164v133.904zM420.8 502.472l-94.64 94.6c11.047 13.683 23.117 25.753 36.346 36.445l0.454 0.355 94.568-94.672c-15.16-9.202-27.526-21.568-36.46-36.254l-0.268-0.474zM457.6 356.76l-94.672-94.6c-13.683 11.047-25.753 23.117-36.445 36.346l-0.355 0.454 94.672 94.568c9.197-15.175 21.565-27.556 36.255-36.5l0.473-0.268zM433.6 448c0 43.299 35.101 78.4 78.4 78.4s78.4-35.101 78.4-78.4c0-43.299-35.101-78.4-78.4-78.4v0c-43.277 0.055-78.345 35.123-78.4 78.395v0.005zM603.248 393.528l94.592-94.6c-11.047-13.683-23.117-25.753-36.346-36.445l-0.454-0.355-94.568 94.632c15.179 9.208 27.56 21.589 36.5 36.294l0.268 0.474zM566.472 539.2l94.6 94.64c13.683-11.047 25.753-23.117 36.445-36.346l0.355-0.454-94.632-94.568c-9.212 15.163-21.593 27.531-36.293 36.46l-0.475 0.268zM566 578.32v101.84c27.247-6.451 51.263-16.74 72.908-30.439l-0.972 0.575zM458 578.32l-71.936 71.936c20.672 13.138 44.688 23.44 70.322 29.578l1.614 0.326zM273.952 460.8c0.232 4.392 0.616 8.8 1.088 13.16h133.904c-2.129-7.801-3.352-16.758-3.352-26s1.223-18.199 3.516-26.717l-0.164 0.717h-133.904c-0.907 7.84-1.424 16.924-1.424 26.13 0 4.471 0.122 8.913 0.363 13.324l-0.027-0.614zM458 317.6v-101.76c-27.247 6.451-51.263 16.74-72.908 30.439l0.972-0.575zM566 317.6l71.936-71.936c-20.674-13.11-44.691-23.387-70.324-29.5l-1.612-0.324zM750.048 435.12c-0.289-5.214-0.677-9.758-1.19-14.264l0.102 1.104h-133.904c2.129 7.801 3.352 16.758 3.352 26s-1.223 18.199-3.516 26.717l0.164-0.717h133.904c0.906-7.836 1.423-16.916 1.423-26.117 0-4.461-0.122-8.895-0.361-13.296l0.027 0.613zM642.4 502l71.936 71.936c13.107-20.674 23.383-44.691 29.499-70.322l0.325-1.614zM970 502h-75.448c-9.789 68.006-36.069 128.526-74.64 179.182l0.688-0.942 53.44 53.44c9.991 9.807 16.183 23.454 16.183 38.547 0 29.823-24.177 54-54 54-15.095 0-28.744-6.194-38.543-16.179l-53.44-53.448c-49.714 37.883-110.234 64.163-176.172 73.706l-2.068 0.246v75.448c0 29.823-24.177 54-54 54s-54-24.177-54-54v0-75.448c-68.006-9.789-128.526-36.069-179.182-74.64l0.942 0.688-53.432 53.44c-9.807 9.993-23.456 16.187-38.551 16.187-29.823 0-54-24.177-54-54 0-15.093 6.192-28.74 16.175-38.539l53.448-53.448c-37.883-49.714-64.163-110.234-73.706-176.172l-0.246-2.068h-75.448c-29.823 0-54-24.177-54-54s24.177-54 54-54v0h75.448c9.789-68.006 36.069-128.526 74.64-179.182l-0.688 0.942-53.44-53.44c-9.553-9.734-15.449-23.085-15.449-37.813 0-29.823 24.177-54 54-54 14.73 0 28.083 5.898 37.825 15.461l53.424 53.432c49.714-37.883 110.234-64.163 176.172-73.706l2.068-0.246v-75.448c0-29.823 24.177-54 54-54s54 24.177 54 54v0 75.448c68.006 9.789 128.526 36.069 179.182 74.64l-0.942-0.688 53.432-53.44c9.807-9.993 23.456-16.187 38.551-16.187 29.823 0 54 24.177 54 54 0 15.093-6.192 28.74-16.175 38.539l-53.448 53.448c37.883 49.714 64.163 110.234 73.706 176.172l0.246 2.068h75.448c29.823 0 54 24.177 54 54s-24.177 54-54 54v0zM868.312 409.496c-7.887-71.336-35.729-134.998-77.748-186.671l0.516 0.655-0.056-0.048c-16.386-20.214-34.242-38.070-53.785-53.929l-0.671-0.527-0.064-0.072c-51.007-41.486-114.652-69.319-184.359-77.063l-1.609-0.145c-11.553-1.337-24.939-2.1-38.504-2.1s-26.951 0.763-40.119 2.248l1.615-0.148c-71.316 7.889-134.961 35.722-186.624 77.724l0.656-0.516-0.064 0.072c-20.214 16.386-38.070 34.242-53.929 53.785l-0.527 0.671-0.056 0.048c-41.502 51.017-69.345 114.68-77.087 184.407l-0.145 1.609c-1.335 11.551-2.096 24.937-2.096 38.5s0.761 26.948 2.244 40.115l-0.148-1.615c7.887 71.336 35.729 134.998 77.748 186.671l-0.516-0.655 0.056 0.048c16.386 20.214 34.242 38.070 53.785 53.929l0.671 0.527 0.064 0.072c51.007 41.486 114.652 69.319 184.359 77.063l1.609 0.145c11.553 1.337 24.939 2.1 38.504 2.1s26.951-0.763 40.119-2.248l-1.615 0.148h0.056c71.307-7.899 134.942-35.73 186.6-77.725l-0.656 0.517 0.064-0.072c20.214-16.386 38.070-34.242 53.929-53.785l0.527-0.671 0.056-0.048c41.502-51.017 69.345-114.68 77.087-184.407l0.145-1.609c1.335-11.551 2.096-24.937 2.096-38.5s-0.761-26.948-2.244-40.115l0.148 1.615zM766.056 738.824l51.416 51.416c4.709 4.709 11.214 7.622 18.4 7.622 14.371 0 26.022-11.65 26.022-26.022 0-7.186-2.913-13.691-7.622-18.4l-51.416-51.424-0.616 0.656c-11.199 12.704-22.792 24.297-35.072 35.129l-0.424 0.367c-0.256 0.232-0.464 0.456-0.688 0.656zM486 833.504v72.496c0 14.359 11.641 26 26 26s26-11.641 26-26v0-72.496c-7.778 0.566-16.852 0.888-26 0.888s-18.222-0.322-27.209-0.956l1.209 0.068zM221.2 702.056l-51.44 51.424c-4.709 4.709-7.622 11.214-7.622 18.4 0 14.371 11.65 26.022 26.022 26.022 7.186 0 13.691-2.913 18.4-7.622v0l51.416-51.416-0.656-0.616c-12.704-11.199-24.297-22.792-35.129-35.072l-0.367-0.424c-0.224-0.264-0.448-0.472-0.648-0.696zM126.496 422h-72.496c-14.359 0-26 11.641-26 26s11.641 26 26 26v0h72.496c-0.569-7.778-0.894-16.851-0.894-26s0.325-18.221 0.963-27.207l-0.069 1.207zM257.944 157.2l-51.416-51.416c-4.707-4.712-11.213-7.627-18.4-7.627-14.363 0-26.007 11.644-26.007 26.007 0 7.177 2.907 13.675 7.608 18.38v0l51.416 51.424 0.616-0.656c11.199-12.704 22.792-24.297 35.072-35.129l0.424-0.367c0.256-0.216 0.464-0.44 0.688-0.64zM538 62.496v-72.496c0-14.359-11.641-26-26-26s-26 11.641-26 26v0 72.496c7.778-0.566 16.852-0.888 26-0.888s18.222 0.322 27.209 0.956l-1.209-0.068zM802.8 193.944l51.416-51.424c4.7-4.705 7.607-11.203 7.607-18.38 0-14.363-11.644-26.007-26.007-26.007-7.187 0-13.693 2.915-18.4 7.627v0l-51.416 51.416 0.656 0.616c12.704 11.199 24.297 22.792 35.129 35.072l0.367 0.424c0.248 0.224 0.472 0.432 0.672 0.656zM970 422h-72.496c0.569 7.778 0.894 16.851 0.894 26s-0.325 18.221-0.963 27.207l0.069-1.207h72.496c14.359 0 26-11.641 26-26s-11.641-26-26-26v0z" />
<glyph unicode="&#xe90c;" glyph-name="right-arrow" d="M128 448c0 17.673 14.327 32 32 32v0h704c17.673 0 32-14.327 32-32s-14.327-32-32-32v0h-704c-17.673 0-32 14.327-32 32v0zM553.376 758.624c5.791 5.789 13.789 9.369 22.624 9.369s16.833-3.58 22.624-9.369l288-288c5.789-5.791 9.369-13.789 9.369-22.624s-3.58-16.833-9.369-22.624l-288-288c-5.749-5.558-13.59-8.983-22.231-8.983-17.673 0-32 14.327-32 32 0 8.641 3.425 16.482 8.991 22.24l265.367 265.367-265.376 265.376c-5.789 5.791-9.369 13.789-9.369 22.624s3.58 16.833 9.369 22.624v0z" />
<glyph unicode="&#xe90d;" glyph-name="ship" d="M293.362 118.826c-0.003 0-0.008 0-0.012 0-4.308 0-8.156 1.968-10.693 5.055l-0.019 0.024c-77.921 95.218-152.825 270.834-145.159 422.234 0.287 5.545 3.796 10.203 8.68 12.158l0.093 0.033 360.711 141.146c1.493 0.601 3.224 0.949 5.037 0.949s3.544-0.349 5.13-0.982l-0.093 0.033 360.711-141.146c4.977-1.988 8.487-6.646 8.772-12.157l0.001-0.034c7.666-151.51-67.321-327.099-145.297-422.248-2.557-3.099-6.398-5.059-10.697-5.059-7.643 0-13.839 6.196-13.839 13.839 0 3.344 1.186 6.411 3.161 8.804l-0.019-0.023c71.334 86.971 143.332 253.232 139.472 394.378l-347.302 135.901-347.233-135.874c-3.861-141.021 68.054-307.366 139.319-394.378 1.952-2.368 3.137-5.432 3.137-8.773 0-7.641-6.193-13.835-13.833-13.838v0zM862.831 411.316c-1.802 0.001-3.524 0.346-5.103 0.974l0.094-0.033-345.821 133.992-345.821-133.992c-1.483-0.592-3.203-0.936-5.002-0.936-7.643 0-13.839 6.196-13.839 13.839 0 5.844 3.622 10.842 8.743 12.871l0.094 0.033 350.831 135.971c1.482 0.591 3.199 0.933 4.995 0.933s3.514-0.343 5.089-0.966l-0.094 0.033 350.831-135.971c5.226-2.056 8.858-7.059 8.858-12.911 0-7.642-6.195-13.838-13.838-13.838-0.005 0-0.011 0-0.016 0h0.001zM825.593 95.287c-1.33-0.034-2.896-0.054-4.466-0.054-28.867 0-56.186 6.632-80.515 18.454l1.096-0.48c-20.159 9.925-43.881 15.73-68.96 15.73-1.424 0-2.843-0.019-4.258-0.056l0.209 0.004c-1.204 0.033-2.621 0.051-4.043 0.051-25.057 0-48.758-5.805-69.831-16.144l0.935 0.414c-23.225-11.342-50.535-17.974-79.394-17.974-1.569 0-3.134 0.020-4.694 0.059l0.231-0.005c-1.329-0.034-2.893-0.054-4.462-0.054-28.864 0-56.179 6.632-80.505 18.455l1.096-0.481c-20.145 9.925-43.852 15.73-68.916 15.73-1.425 0-2.845-0.019-4.26-0.056l0.209 0.004c-1.208 0.033-2.629 0.052-4.055 0.052-25.053 0-48.75-5.805-69.819-16.144l0.934 0.414c-23.224-11.342-50.533-17.974-79.39-17.974-1.566 0-3.127 0.020-4.684 0.058l0.231-0.005c-1.344-0.035-2.926-0.055-4.513-0.055-28.837 0-56.126 6.632-80.423 18.455l1.092-0.48c-20.137 9.924-43.835 15.73-68.89 15.73-1.419 0-2.834-0.019-4.244-0.056l0.209 0.004c-7.642 0-13.838 6.195-13.838 13.838s6.195 13.838 13.838 13.838v0c1.289 0.032 2.807 0.051 4.329 0.051 28.902 0 56.249-6.657 80.592-18.52l-1.091 0.48c20.142-9.924 43.847-15.729 68.908-15.729 1.413 0 2.821 0.018 4.225 0.055l-0.207-0.004c1.156-0.030 2.518-0.047 3.884-0.047 25.122 0 48.883 5.83 70.004 16.21l-0.934-0.415c23.254 11.384 50.603 18.040 79.507 18.040 1.525 0 3.045-0.019 4.561-0.055l-0.225 0.004c1.29 0.032 2.809 0.051 4.333 0.051 28.915 0 56.275-6.657 80.632-18.521l-1.093 0.481c20.157-9.924 43.878-15.729 68.955-15.729 1.411 0 2.817 0.018 4.219 0.055l-0.207-0.004c1.195-0.032 2.603-0.051 4.014-0.051 25.071 0 48.787 5.805 69.876 16.144l-0.937-0.415c23.254 11.384 50.603 18.040 79.507 18.040 1.525 0 3.045-0.019 4.561-0.055l-0.225 0.004c1.325 0.034 2.885 0.054 4.45 0.054 28.876 0 56.204-6.626 80.547-18.441l-1.099 0.481c21.451-9.907 46.552-15.686 73.002-15.686s51.55 5.778 74.107 16.141l-1.106-0.455c23.19 11.293 50.45 17.895 79.253 17.895 1.629 0 3.252-0.021 4.871-0.063l-0.239 0.005c7.642 0 13.838-6.195 13.838-13.838s-6.195-13.838-13.838-13.838v0c-1.206 0.033-2.625 0.052-4.049 0.052-25.078 0-48.801-5.805-69.897-16.145l0.937 0.415c-23.231-11.343-50.548-17.974-79.413-17.974-1.572 0-3.14 0.020-4.703 0.059l0.231-0.005zM825.593-22.334c-1.293-0.033-2.815-0.051-4.341-0.051-28.921 0-56.288 6.657-80.651 18.521l1.094-0.481c-20.159 9.925-43.881 15.73-68.96 15.73-1.424 0-2.843-0.019-4.258-0.056l0.209 0.004c-1.204 0.033-2.621 0.051-4.043 0.051-25.057 0-48.758-5.805-69.831-16.144l0.935 0.414c-23.262-11.384-50.619-18.040-79.532-18.040-1.521 0-3.038 0.018-4.55 0.055l0.224-0.004c-1.287-0.032-2.803-0.051-4.324-0.051-28.918 0-56.281 6.656-80.641 18.52l1.093-0.481c-20.145 9.925-43.852 15.73-68.916 15.73-1.425 0-2.845-0.019-4.26-0.056l0.209 0.004c-1.208 0.033-2.629 0.052-4.055 0.052-25.053 0-48.75-5.805-69.819-16.144l0.934 0.414c-23.26-11.383-50.617-18.040-79.528-18.040-1.517 0-3.030 0.018-4.539 0.055l0.224-0.004c-1.299-0.033-2.828-0.052-4.362-0.052-28.891 0-56.227 6.657-80.558 18.521l1.090-0.48c-20.101 9.883-43.752 15.664-68.753 15.664-1.467 0-2.93-0.020-4.387-0.059l0.215 0.005c-7.642 0-13.838 6.195-13.838 13.838s6.195 13.838 13.838 13.838v0c1.33 0.035 2.896 0.054 4.467 0.054 28.848 0 56.148-6.632 80.456-18.454l-1.094 0.48c20.142-9.924 43.847-15.729 68.908-15.729 1.413 0 2.821 0.018 4.225 0.055l-0.207-0.004c1.197-0.032 2.607-0.051 4.020-0.051 25.069 0 48.783 5.805 69.869 16.144l-0.936-0.415c23.218 11.342 50.519 17.974 79.369 17.974 1.573 0 3.142-0.020 4.706-0.059l-0.232 0.005c1.331 0.035 2.899 0.054 4.471 0.054 28.861 0 56.173-6.632 80.496-18.455l-1.095 0.48c20.157-9.924 43.878-15.729 68.955-15.729 1.411 0 2.817 0.018 4.219 0.055l-0.207-0.004c1.195-0.032 2.603-0.051 4.014-0.051 25.071 0 48.787 5.805 69.876 16.144l-0.937-0.415c23.218 11.342 50.519 17.974 79.369 17.974 1.573 0 3.142-0.020 4.706-0.059l-0.232 0.005c1.325 0.034 2.885 0.054 4.45 0.054 28.876 0 56.204-6.626 80.547-18.441l-1.099 0.481c21.451-9.907 46.552-15.686 73.002-15.686s51.55 5.778 74.107 16.141l-1.106-0.455c23.226 11.334 50.535 17.961 79.391 17.961 1.58 0 3.155-0.020 4.726-0.059l-0.232 0.005c7.642 0 13.838-6.195 13.838-13.838s-6.195-13.838-13.838-13.838v0c-1.206 0.033-2.625 0.052-4.049 0.052-25.078 0-48.801-5.805-69.897-16.145l0.937 0.415c-23.231-11.343-50.548-17.974-79.413-17.974-1.572 0-3.14 0.020-4.703 0.059l0.231-0.005zM512 95.315c-7.642 0-13.838 6.195-13.838 13.838v0 577.439c0 7.642 6.195 13.838 13.838 13.838s13.838-6.195 13.838-13.838v0-577.439c0-7.642-6.195-13.838-13.838-13.838v0zM730.555 587.292c-7.642 0-13.838 6.195-13.838 13.838v0 154.541c-0.008 9.002-7.3 16.299-16.299 16.315h-376.834c-9.001-0.016-16.293-7.312-16.301-16.314v-154.542c0-7.642-6.195-13.838-13.838-13.838s-13.838 6.195-13.838 13.838v0 154.541c0.024 24.281 19.697 43.959 43.974 43.99h376.835c24.28-0.031 43.953-19.71 43.977-43.988v-154.543c0-7.642-6.195-13.838-13.838-13.838v0zM561.927 771.985h-99.854c-7.642 0-13.838 6.195-13.838 13.838v0 118.673c0 7.642 6.195 13.838 13.838 13.838v0h99.854c7.642 0 13.838-6.195 13.838-13.838v0-118.673c0-7.642-6.195-13.838-13.838-13.838v0zM475.911 799.661h72.178v90.998h-72.178z" />
<glyph unicode="&#xe90e;" glyph-name="linkedin" d="M307.2 106.667h-170.667v512h170.667v-512zM221.901 686.933c-47.206 0-85.367 38.263-85.367 85.367s38.229 85.299 85.367 85.299c47.036 0 85.299-38.263 85.299-85.299 0-47.104-38.263-85.367-85.299-85.367zM921.6 106.667h-164.079v249.173c0 59.426-1.126 135.851-85.299 135.851-85.436 0-98.577-64.717-98.577-131.55v-253.474h-164.045v512.375h157.491v-70.007h2.219c21.914 40.277 75.469 82.739 155.341 82.739 166.229 0 196.949-106.121 196.949-244.087 0 0 0-281.020 0-281.020z" />
<glyph unicode="&#xe90f;" glyph-name="wifi-router" d="M767.955 880.054v-384.008c0 0 0 0 0 0-17.634 0-31.93-14.296-31.93-31.93 0-0.021 0-0.043 0-0.064v0.003l-0.060-144.109h-639.932c-35.8 0-64.042-28.846-64.042-64.042v-159.892c0-35.196 28.362-64.042 64.042-64.042h15.965v-47.956c-0.060-8.829 7.136-16.086 16.026-16.026h112.058c8.829 0 16.026 7.257 15.965 16.026v47.956h511.97v-47.956c0-8.89 7.196-16.086 16.086-16.026h111.937c0.018 0 0.039 0 0.060 0 8.851 0 16.026 7.175 16.026 16.026 0 0 0 0 0 0v0 47.956h15.965c35.8 0 63.981 28.846 63.981 64.042v159.892c0 35.196-28.181 64.102-63.981 64.102h-32.051v143.988c-0.034 17.621-14.309 31.896-31.927 31.93h-0.003l-0.060 384.008c0 26.519-21.498 48.016-48.016 48.016s-48.016-21.498-48.016-48.016v0zM816.031 895.958c8.708 0 15.965-6.773 15.965-15.905v-384.008h-31.991v384.008c0 9.071 7.317 15.905 16.026 15.905zM361.028 747.133c-114.456-0.183-217.916-47.111-292.338-122.709l-0.052-0.053c-15.602-14.574 8.406-38.34 22.799-22.436 68.657 69.716 164.031 112.95 269.505 113.086h0.026c101.112 0 198.112-40.699 269.652-113.086 14.514-15.965 38.219 7.983 22.738 22.436-74.479 75.598-177.907 122.496-292.29 122.701h-0.039zM361.028 646.444c-86.906-0.072-165.487-35.66-222.022-93.031l-0.037-0.038c-16.57-14.030 9.192-38.582 22.678-22.375 50.8 51.539 121.352 83.493 199.366 83.575h0.015c74.745 0 146.407-30.055 199.382-83.635 14.635-15.481 37.977 7.559 22.799 22.436-56.617 57.421-135.23 93.024-222.16 93.129h-0.020zM361.028 545.937c-57.027 0-111.513-22.799-151.789-63.497-15.542-14.332 8.103-38.461 22.678-22.557 32.914 33.346 78.616 54 129.141 54s96.228-20.655 129.122-53.981l0.019-0.019c14.877-15.723 38.098 7.741 22.799 22.557-38.751 39.202-92.524 63.484-151.968 63.497h-0.003zM768.015 463.995h95.972v-144.048h-96.032zM360.967 445.369c-30.66 0-59.99-12.276-81.639-34.107-15.723-15.239 7.741-38.461 22.799-22.557 14.986 15.24 35.826 24.684 58.871 24.684s43.885-9.444 58.86-24.672l0.011-0.011c15.058-15.723 38.34 7.438 22.678 22.557-20.82 21.055-49.706 34.098-81.638 34.107h-0.002zM96.032 287.896h831.996c18.021 0 31.991-14.211 31.991-31.991v-159.892c0-18.021-14.453-32.051-32.051-32.051h-831.875c-0.090-0.001-0.197-0.001-0.304-0.001-17.534 0-31.749 14.214-31.749 31.749 0 0.107 0.001 0.214 0.002 0.32v-0.016 159.892c0 17.779 14.030 32.051 32.051 32.051zM175.918 255.906c-26.485 0-47.956-21.47-47.956-47.956s21.47-47.956 47.956-47.956v0c0.719-0.039 1.562-0.060 2.409-0.060 26.519 0 48.016 21.498 48.016 48.016s-21.498 48.016-48.016 48.016c-0.847 0-1.69-0.022-2.526-0.065l0.117 0.005zM304.122 255.906c-26.971 0-48.137-21.589-48.137-47.895s21.468-48.016 48.137-48.016c26.485 0 47.956 21.47 47.956 47.956s-21.47 47.956-47.956 47.956v0zM432.084 255.906c-0.543 0.022-1.18 0.035-1.82 0.035-26.519 0-48.016-21.498-48.016-48.016s21.498-48.016 48.016-48.016c0.555 0 1.108 0.009 1.659 0.028l-0.080-0.002c25.831 0.876 46.438 22.027 46.438 47.99 0 25.878-20.472 46.975-46.104 47.979l-0.091 0.003zM175.918 224.036c8.527 0 16.086-7.015 16.086-16.026 0-8.851-7.175-16.026-16.026-16.026s-16.026 7.175-16.026 16.026v0c0 9.011 7.438 16.026 15.965 16.026zM304.122 224.036c8.587 0 15.905-7.015 15.905-16.026s-7.257-15.965-15.905-15.965c-8.648 0-16.146 6.894-16.146 15.965s7.559 16.026 16.146 16.026zM432.084 224.036c8.406 0 15.905-7.015 15.905-16.026s-7.257-15.965-15.905-15.965c-8.708 0-16.086 6.894-16.086 15.965s7.68 16.026 16.086 16.026zM527.935 224.036c-20.863 0-20.863-31.991 0-31.991h144.169c20.863 0 20.863 32.051 0 32.051zM744.007 224.036c-20.924 0-20.924-31.991 0-31.991h40.034c20.863 0 20.863 32.051 0 32.051zM143.927 31.972h80.007v-31.991h-79.946zM799.945 31.972h80.007v-31.991h-79.886z" />
<glyph unicode="&#xe910;" glyph-name="achieve-star" d="M915.68 603.2c-14.695 11.556-26.681 25.842-35.335 42.166l-0.345 0.714c-1.096 6.432-1.723 13.842-1.723 21.398 0 13.006 1.856 25.579 5.318 37.467l-0.236-0.945c6.24 32 12.48 64-4.96 88.48s-51.040 28.32-83.2 32c-20.53 0.645-39.706 5.835-56.749 14.59l0.749-0.35c-13.071 13.248-23.373 29.263-29.944 47.084l-0.296 0.916c-13.76 30.56-28 61.28-56.96 70.72s-56.8-7.040-84.64-22.4c-15.693-10.868-34.392-18.591-54.592-21.819l-0.768-0.101c-20.968 3.329-39.667 11.052-55.808 22.213l0.448-0.293c-28 15.36-56.64 31.36-84.64 22.4s-43.2-40.16-56.96-69.76c-6.867-18.737-17.169-34.752-30.254-48.015l0.014 0.015c-16.306-8.332-35.468-13.512-55.764-14.233l-0.236-0.007c-32-3.84-65.44-8-83.2-32s-11.2-57.44-4.96-89.44c3.226-10.943 5.083-23.516 5.083-36.522 0-7.556-0.626-14.965-1.83-22.18l0.108 0.782c-8.999-17.038-20.986-31.324-35.398-42.666l-0.282-0.214c-24.16-22.4-49.12-45.6-49.12-76.64s24.96-54.24 49.12-76.64c14.695-11.556 26.681-25.842 35.335-42.166l0.345-0.714c1.044-6.279 1.641-13.514 1.641-20.888 0-13.31-1.944-26.165-5.563-38.299l0.242 0.947c-6.24-32-12.48-64 4.96-88.48 13.094-15.206 31.565-25.464 52.431-27.806l0.369-0.034-81.28-151.52c-2.557-4.588-4.062-10.064-4.062-15.892 0-17.638 13.787-32.056 31.173-33.064l0.089-0.004 113.12-3.84 66.24-80c6.104-7.335 15.227-11.977 25.436-12h3.204c11.195 0.917 20.676 7.471 25.676 16.789l0.084 0.171 96 174.4c10.961 6.664 23.96 11.129 37.875 12.452l0.365 0.028c14.168-1.401 27.051-5.861 38.322-12.707l-0.402 0.227 96-174.4c5.102-9.636 14.73-16.28 25.974-17.114l0.106-0.006h3.2c10.213 0.023 19.336 4.665 25.397 11.946l0.043 0.054 66.24 80 113.12 4c17.533 0.943 31.394 15.391 31.394 33.075 0 5.444-1.313 10.581-3.64 15.111l0.087-0.186-81.6 151.52c21.235 2.376 39.706 12.634 52.711 27.734l0.089 0.106c17.44 24.16 11.2 56.8 4.96 88.48-3.571 11.491-5.628 24.701-5.628 38.393 0 7.346 0.592 14.553 1.731 21.577l-0.103-0.769c9.087 17.057 21.18 31.347 35.705 42.659l0.295 0.221c24.16 22.4 49.12 45.6 49.12 76.64s-25.28 54.24-49.44 76.64zM352-32c-0.363-0.525-0.933-0.884-1.59-0.959l-0.010-0.001c-0.229-0.135-0.505-0.214-0.8-0.214s-0.571 0.080-0.808 0.218l0.008-0.004-70.72 85.92c-2.779 3.247-6.801 5.36-11.32 5.598l-0.040 0.002-120.96 5.44c-0.252-0.148-0.556-0.236-0.88-0.236s-0.628 0.088-0.888 0.24l0.008-0.004c-0.162 0.275-0.257 0.607-0.257 0.96s0.096 0.685 0.262 0.969l-0.005-0.009 86.88 161.6c19.735-0.705 38.133-5.771 54.471-14.256l-0.711 0.336c13.050-13.26 23.348-29.271 29.942-47.079l0.298-0.921c13.76-29.6 28-60.16 56.96-69.6 4.96-1.725 10.677-2.721 16.627-2.721 0.117 0 0.234 0 0.351 0.001h-0.018c12.988 0.468 25.136 3.605 36.061 8.875l-0.541-0.235zM880 64c-0.298-0.574-0.888-0.96-1.568-0.96-0.011 0-0.023 0-0.034 0h0.002l-120.16-4.16c-4.559-0.24-8.581-2.353-11.342-5.578l-0.018-0.022-70.88-85.28c-0.229-0.135-0.505-0.214-0.8-0.214s-0.571 0.080-0.808 0.218l0.008-0.004c-0.667 0.076-1.237 0.435-1.595 0.953l-0.005 0.007-73.28 133.76c9.867-5.213 21.566-8.273 33.979-8.273 6.575 0 12.949 0.858 19.017 2.469l-0.516-0.116c28.96 9.44 43.2 40 56.96 69.6 6.892 18.729 17.19 34.74 30.257 48.018l-0.017-0.018c15.627 8.149 34.025 13.215 53.536 13.914l0.224 0.006 87.040-162.080c0.225-0.311 0.361-0.7 0.361-1.12s-0.135-0.809-0.364-1.126l0.004 0.006zM894.72 472.48c-19-14.833-34.1-33.779-44.099-55.554l-0.381-0.926c-2.072-9.442-3.26-20.287-3.26-31.41 0-15.087 2.184-29.664 6.254-43.432l-0.274 1.082c4.8-25.12 9.92-51.040 0-64s-30.4-16-53.12-18.56l-8.64-0.96c-26.027-0.917-50.163-8.225-71.13-20.391l0.73 0.391c-17.71-16.206-31.46-36.443-39.826-59.277l-0.334-1.043c-11.040-23.52-22.24-48-38.4-53.28s-37.92 7.84-60 20c-19.828 13.711-43.721 22.982-69.545 25.857l-0.695 0.063c-26.562-2.859-50.518-12.081-70.921-26.098l0.521 0.338c-22.080-12.16-44.96-24.8-60-20s-27.36 29.76-38.4 53.28c-8.7 23.877-22.45 44.114-40.046 60.217l-0.114 0.103c-20.237 11.775-44.373 19.083-70.137 19.993l-0.263 0.007-8.64 1.12c-22.72 2.88-44.48 6.72-53.12 18.72s-4.48 39.040 0 64c3.818 12.722 6.015 27.34 6.015 42.472 0 10.907-1.142 21.547-3.312 31.807l0.177-0.999c-10.377 22.563-25.416 41.396-43.991 55.913l-0.329 0.247c-19.36 17.76-39.2 36.32-39.2 53.76s19.84 36 39.2 53.92c18.901 14.71 33.94 33.491 43.939 55.083l0.381 0.917c2.072 9.442 3.26 20.287 3.26 31.41 0 15.087-2.184 29.664-6.254 43.432l0.274-1.082c-4.8 25.12-9.92 51.2 0 64s36.32 16 61.92 19.84c26.013 0.772 50.172 8.039 71.117 20.225l-0.717-0.385c17.674 16.232 31.416 36.46 39.822 59.271l0.338 1.049c11.040 23.68 22.24 48 38.4 53.28 2.083 0.712 4.483 1.123 6.979 1.123 0.134 0 0.268-0.001 0.401-0.004h-0.020c19.762-3.15 37.416-10.241 52.809-20.465l-0.489 0.305c19.906-13.608 43.846-22.817 69.696-25.696l0.704-0.064c26.554 2.943 50.494 12.152 70.937 26.106l-0.537-0.346c22.080 12.32 44.96 24.96 60 20.16s27.36-29.6 38.4-53.28c8.744-23.86 22.486-44.088 40.050-60.22l0.11-0.1c20.228-11.801 44.387-19.068 70.178-19.835l0.222-0.005c25.6-3.2 52.16-6.4 61.92-19.84s4.48-39.2 0-64c-3.795-12.686-5.98-27.263-5.98-42.35 0-11.123 1.187-21.968 3.442-32.416l-0.182 1.006c10.38-22.509 25.419-41.29 43.988-55.751l0.332-0.249c19.36-17.92 39.2-36.32 39.2-53.92s-20.16-36.48-39.52-54.24zM512 824.16c-164.36 0-297.6-133.24-297.6-297.6s133.24-297.6 297.6-297.6c164.36 0 297.6 133.24 297.6 297.6v0c-0.182 164.287-133.313 297.418-297.583 297.6h-0.017zM512 260c-147.217 0-266.56 119.343-266.56 266.56s119.343 266.56 266.56 266.56c147.217 0 266.56-119.343 266.56-266.56v0c-0.091-147.181-119.38-266.469-266.552-266.56h-0.008zM674.4 593.92l-102.56 14.080-45.92 92.96c-2.803 4.879-7.984 8.111-13.92 8.111s-11.117-3.233-13.879-8.033l-0.041-0.078-45.92-92.96-102.56-14.88c-7.274-1.605-12.636-7.997-12.636-15.642 0-4.148 1.579-7.928 4.168-10.77l-0.011 0.013 74.88-71.52-17.44-102.24c-0.041-0.43-0.065-0.93-0.065-1.436 0-8.837 7.163-16 16-16 2.401 0 4.679 0.529 6.723 1.477l-0.099-0.041 91.68 48 91.68-48c2.099-1.063 4.568-1.707 7.183-1.76h0.017c0.040 0 0.088-0.001 0.136-0.001 8.837 0 16 7.163 16 16 0 0.734-0.049 1.456-0.145 2.163l0.009-0.082-17.44 102.24 74.080 72.32c2.578 2.83 4.156 6.609 4.156 10.758 0 7.645-5.362 14.038-12.53 15.623l-0.106 0.020zM581.28 512c-2.886-2.894-4.671-6.888-4.671-11.298 0-0.869 0.069-1.722 0.203-2.554l-0.012 0.091 13.6-79.2-71.2 37.44c-2.096 1.079-4.574 1.712-7.2 1.712s-5.104-0.633-7.29-1.754l0.090 0.042-71.2-37.76 14.4 79.2c0.121 0.74 0.191 1.593 0.191 2.462 0 4.41-1.785 8.404-4.671 11.298v0l-57.44 56.16 80 11.52c5.121 0.849 9.356 4.029 11.638 8.392l0.042 0.088 34.24 72 35.52-72c2.324-4.451 6.559-7.631 11.587-8.467l0.093-0.013 80-11.52z" />
<glyph unicode="&#xe911;" glyph-name="calendar-off" d="M896 789.333h-170.667v85.333h-85.333v-85.333h-256v85.333h-85.333v-85.333h-170.667c-23.564 0-42.667-19.103-42.667-42.667v0-597.333c0-23.564 19.103-42.667 42.667-42.667v0h768c23.564 0 42.667 19.103 42.667 42.667v0 597.333c0 23.564-19.103 42.667-42.667 42.667v0zM853.333 405.333v-213.333h-682.667v512h682.667zM733.013 362.667l50.347-50.347-50.347-50.347-50.347 50.347-50.347-50.347-50.347 50.347 50.347 50.347-50.347 50.347 50.347 50.347 50.347-50.347 50.347 50.347 50.347-50.347z" />
<glyph unicode="&#xe912;" glyph-name="check-mark" d="M472.59 52.498c-5.71 0.001-10.852 2.431-14.448 6.314l-0.012 0.013-389.882 421.74c-3.243 3.5-5.232 8.201-5.232 13.367 0 10.876 8.816 19.692 19.692 19.692h187.668c5.921-0.001 11.232-2.614 14.844-6.749l130.32-149.929c14.082 30.102 41.342 80.223 89.179 141.296 70.719 90.289 202.26 223.076 427.311 342.947 2.68 1.455 5.868 2.311 9.256 2.311 10.876 0 19.692-8.817 19.692-19.692 0-6.29-2.949-11.891-7.539-15.496l-0.043-0.032c-0.859-0.672-87.631-69.004-187.494-194.166-91.908-115.18-214.083-303.518-274.202-546.658-2.194-8.66-9.918-14.965-19.115-14.966v0z" />
<glyph unicode="&#xe913;" glyph-name="downward-arrow" d="M878.736 635.248c-2.49 5.787-8.139 9.768-14.719 9.776h-704.017c-0.009 0-0.020 0-0.030 0-8.837 0-16-7.163-16-16 0-4.346 1.733-8.288 4.546-11.171l351.997-362.029c2.91-2.991 6.974-4.847 11.472-4.847s8.562 1.856 11.468 4.843l0.004 0.004 352 362.048c2.799 2.878 4.525 6.813 4.525 11.15 0 2.248-0.464 4.388-1.301 6.33l0.040-0.104z" />
<glyph unicode="&#xe914;" glyph-name="mechanic" d="M611.152 448.168l89.472 89.48c18.416-7.43 39.772-11.741 62.134-11.741 94.043 0 170.28 76.237 170.28 170.28 0 21.014-3.807 41.14-10.768 59.724l0.386-1.175c-2.025 5.399-7.142 9.172-13.141 9.172-3.866 0-7.365-1.567-9.899-4.1l-102.976-103.008-71.368 1.896-1.888 71.36 103.016 103.016c2.536 2.533 4.104 6.033 4.104 9.9 0 6.002-3.779 11.121-9.088 13.108l-0.097 0.032c-17.423 6.586-37.564 10.399-58.596 10.399-94.043 0-170.28-76.237-170.28-170.28 0-22.369 4.313-43.731 12.153-63.298l-0.406 1.147-89.48-89.48-22.568 22.6-0.144 0.080c-7.816 9.218-13.791 20.262-17.197 32.382l-0.147 0.61c-6.143 18.651-9.687 40.119-9.687 62.415 0 2.099 0.031 4.191 0.094 6.274l-0.007-0.305c0.007 0.611 0.011 1.333 0.011 2.055 0 110.939-89.933 200.872-200.872 200.872-50.061 0-95.844-18.312-131.017-48.604l0.262 0.221c-2.997-2.581-4.884-6.381-4.884-10.621 0-5.354 3.007-10.005 7.424-12.358l0.075-0.037 158.2-83.064 12.496-42.44-41.752-52.944-151.36 86.112c-1.986 1.147-4.368 1.824-6.908 1.824-7.271 0-13.247-5.547-13.927-12.64l-0.004-0.057c-0.54-5.247-0.848-11.338-0.848-17.501 0-53.073 22.831-100.814 59.206-133.937l0.145-0.13c9.974-9.219 21.151-17.39 33.201-24.195l0.887-0.461-9.24-11.728c-1.878-2.36-3.013-5.385-3.013-8.674 0-5.639 3.336-10.499 8.142-12.714l0.087-0.036c24.331-11.259 52.806-17.826 82.815-17.826 19.646 0 38.634 2.815 56.584 8.062l-1.423-0.356c6.5 2.158 13.982 3.402 21.756 3.402 16.391 0 31.49-5.535 43.529-14.837l-0.165 0.122c1.208-1.008 2.4-2.048 3.44-3.12l0.056-0.064 22.576-22.576-87.16-87.144c-18.417 7.431-39.774 11.742-62.138 11.742-94.043 0-170.28-76.237-170.28-170.28 0-21.018 3.808-41.147 10.772-59.733l-0.386 1.175c2.025-5.399 7.142-9.172 13.141-9.172 3.866 0 7.365 1.567 9.899 4.1l102.976 102.976 71.368-1.896 1.888-71.36-102.976-102.976c-2.535-2.534-4.104-6.035-4.104-9.903 0-6.003 3.779-11.124 9.087-13.114l0.097-0.032c17.389-6.546 37.488-10.336 58.472-10.336 47.029 0 89.613 19.034 120.467 49.819l-0.003-0.003c30.744 30.925 49.747 73.551 49.747 120.616 0 22.273-4.256 43.553-11.999 63.069l0.405-1.157 87.144 87.2 284.864-284.872c13.29-13.085 31.542-21.164 51.68-21.164 40.692 0 73.68 32.988 73.68 73.68 0 20.144-8.084 38.401-21.185 51.701l0.009-0.009zM482.256 537.472l12.664-12.672-64.608-64.608-12.656 12.664zM170.256 566.008c-29.106 26.477-47.937 63.806-50.065 105.544l-0.015 0.368 127.304-72.424-44.52-56.448c-12.474 6.544-23.222 14.18-32.811 23.051l0.099-0.091zM341.808 508.672c-10.744-0.020-21.118-1.576-30.922-4.46l0.778 0.196c-14.231-4.205-30.581-6.624-47.496-6.624-19.437 0-38.127 3.194-55.575 9.086l1.224-0.359 7.648 9.712c0.16 0.176 0.296 0.376 0.448 0.56l115.304 146.24c1.859 2.352 2.982 5.361 2.982 8.632 0 1.423-0.213 2.797-0.608 4.091l0.026-0.099-16.2 55.064c-1.111 3.689-3.599 6.669-6.853 8.403l-0.075 0.037-144 75.6c26.904 17.971 59.99 28.678 95.576 28.678 47.731 0 90.963-19.263 122.346-50.44l-0.009 0.009c31.304-31.129 50.678-74.226 50.678-121.849 0-0.782-0.005-1.562-0.016-2.341l0.001 0.118c-0.053-1.863-0.084-4.055-0.084-6.254 0-25.493 4.090-50.032 11.65-72.994l-0.47 1.649c3.993-12.602 9.194-23.553 15.654-33.62l-0.334 0.556-66.48-66.472c-15.146 10.568-33.94 16.885-54.21 16.885-0.348 0-0.696-0.002-1.043-0.006h0.053zM390.52 254.2c8.224-17.449 13.025-37.9 13.025-59.473 0-78.583-63.705-142.288-142.288-142.288-9.506 0-18.793 0.932-27.777 2.71l0.904-0.149 90.296 90.296c2.534 2.535 4.101 6.036 4.101 9.903 0 0.13-0.002 0.259-0.005 0.388v-0.019l-2.4 90.648c-0.216 7.423-6.177 13.384-13.58 13.6h-0.020l-90.648 2.4c-0.11 0.003-0.24 0.005-0.37 0.005-3.869 0-7.373-1.567-9.91-4.101v0l-90.328-90.288c-1.636 8.098-2.572 17.407-2.572 26.935 0 78.588 63.708 142.296 142.296 142.296 21.605 0 42.085-4.815 60.427-13.43l-0.87 0.367c1.714-0.807 3.723-1.278 5.841-1.278 3.865 0 7.364 1.568 9.895 4.102v0l294.128 294.136c2.533 2.531 4.099 6.028 4.099 9.892 0 2.123-0.473 4.135-1.32 5.938l0.036-0.086c-8.227 17.452-13.030 37.908-13.030 59.485 0 78.588 63.708 142.296 142.296 142.296 9.499 0 18.78-0.931 27.758-2.706l-0.904 0.149-90.272-90.328c-2.552-2.538-4.131-6.051-4.131-9.934 0-0.108 0.001-0.215 0.004-0.322v0.016l2.4-90.648c0.212-7.424 6.176-13.388 13.58-13.6h0.020l90.648-2.4c0.137-0.005 0.298-0.008 0.459-0.008 3.839 0 7.312 1.57 9.811 4.102l0.001 0.001 90.36 90.264c1.627-8.076 2.558-17.359 2.558-26.859 0-78.588-63.708-142.296-142.296-142.296-21.568 0-42.016 4.799-60.334 13.387l0.872-0.367c-1.717 0.81-3.729 1.283-5.852 1.283-3.863 0-7.361-1.567-9.892-4.099l-294.2-294.168c-2.534-2.536-4.101-6.038-4.101-9.907 0-2.12 0.471-4.13 1.313-5.931l-0.036 0.086zM876.216 79c-8.279-8.253-19.701-13.355-32.316-13.355s-24.037 5.103-32.317 13.356l-284.799 284.799 64.6 64.6 284.8-284.8c8.255-8.28 13.36-19.706 13.36-32.324 0-12.606-5.095-24.022-13.337-32.302l0.002 0.002zM424.488 600.736l-51.296 44.504c-2.442 2.126-5.655 3.423-9.172 3.423-4.213 0-7.992-1.861-10.558-4.806l-0.014-0.017-44.504-51.296c-2.127-2.442-3.423-5.656-3.423-9.172 0-4.217 1.865-7.999 4.814-10.565l0.017-0.014 51.296-44.504c2.441-2.127 5.653-3.423 9.168-3.424h1c3.847 0.281 7.228 2.075 9.586 4.783l0.014 0.017 44.496 51.304c2.129 2.442 3.427 5.656 3.427 9.174 0 4.225-1.873 8.013-4.834 10.579l-0.018 0.015zM369.424 558.616l-30.152 26.184 26.152 30.144 30.144-26.152zM850.984 118.128c0-7.732-6.268-14-14-14s-14 6.268-14 14c0 7.732 6.268 14 14 14s14-6.268 14-14z" />
<glyph unicode="&#xe915;" glyph-name="next-double" d="M496.113 452.329l-374.145-374.155c-5.398-5.486-8.732-13.018-8.732-21.329 0-16.798 13.618-30.416 30.416-30.416 8.313 0 15.848 3.335 21.338 8.741l392.806 392.806c6.691 6.691 9.611 15.705 8.77 24.434 0.083 0.843 0.131 1.822 0.131 2.812 0 8.391-3.406 15.986-8.91 21.479l-392.822 392.811c-5.505 5.505-13.109 8.909-21.509 8.909-16.8 0-30.418-13.619-30.418-30.418 0-8.4 3.405-16.004 8.909-21.509v0zM840.39 452.329l-374.176-374.155c-5.398-5.486-8.732-13.018-8.732-21.329 0-16.798 13.618-30.416 30.416-30.416 8.313 0 15.848 3.335 21.338 8.741l392.806 392.806c6.691 6.691 9.611 15.705 8.77 24.434 0.083 0.842 0.13 1.82 0.13 2.808 0 8.392-3.405 15.989-8.91 21.483v0l-392.8 392.81c-5.505 5.505-13.109 8.909-21.509 8.909-16.8 0-30.418-13.619-30.418-30.418 0-8.4 3.405-16.004 8.909-21.509v0z" />
<glyph unicode="&#xe916;" glyph-name="people-3" d="M202.556 612.903c-65.507 0-118.798 52.806-118.798 117.694 0 64.894 53.291 117.702 118.798 117.702 65.501 0 118.782-52.8 118.782-117.702 0-64.896-53.281-117.694-118.782-117.694zM202.556 815.267c-47.298 0-85.766-37.985-85.766-84.67 0-46.679 38.468-84.662 85.766-84.662 47.284 0 85.75 37.983 85.75 84.662 0 46.685-38.466 84.67-85.75 84.67zM250.347 287.032h-207.178c-23.804 0-43.169 19.241-43.169 42.899v54.024c0 110.596 90.863 200.58 202.556 200.58 43.929 0 85.743-13.708 120.888-39.639 4.089-3.043 6.709-7.862 6.709-13.293 0-3.692-1.211-7.102-3.257-9.853l0.031 0.044c-3.044-4.087-7.863-6.706-13.293-6.706-3.69 0-7.097 1.209-9.847 3.252l0.044-0.031c-29.428 21.708-64.444 33.193-101.275 33.193-93.475 0-169.524-75.169-169.524-167.548v-54.024c0-5.436 4.548-9.864 10.137-9.864h207.187c9.113 0 16.516-7.395 16.516-16.516 0-9.113-7.403-16.516-16.524-16.516zM980.831 299.532h-207.178c-9.113 0-16.516 7.395-16.516 16.516 0 9.113 7.403 16.516 16.516 16.516h207.187c5.589 0 10.137 4.418 10.137 9.854v54.024c0 92.395-76.049 167.55-169.524 167.55-39.040 0-77.153-13.444-107.324-37.863-7.081-5.735-17.476-4.645-23.226 2.442-5.733 7.090-4.653 17.493 2.453 23.234 36.024 29.153 81.515 45.219 128.097 45.219 111.684 0 202.548-89.976 202.548-200.582v-54.024c0-23.645-19.363-42.886-43.169-42.886zM821.444 621.064c-65.501 0-118.782 52.798-118.782 117.694s53.281 117.702 118.782 117.702c65.507 0 118.798-52.8 118.798-117.702s-53.3-117.694-118.798-117.694zM821.444 823.428c-47.284 0-85.75-37.985-85.75-84.67s38.466-84.662 85.75-84.662c47.298 0 85.766 37.977 85.766 84.662s-38.476 84.67-85.766 84.67zM736.161 233.29h-448.322c-29.783 0-54.008 24.047-54.008 53.613v75.982c0 151.855 124.773 275.396 278.169 275.396s278.169-123.541 278.169-275.396v-75.982c0-29.564-24.225-53.613-54.008-53.613zM512 605.242c-135.17 0-245.137-108.726-245.137-242.362v-75.985c0-11.347 9.41-20.581 20.975-20.581h448.314c11.565 0 20.975 9.235 20.975 20.581v75.985c0.008 133.636-109.958 242.362-245.128 242.362zM506.259 657.581c-84.162 0-152.646 67.83-152.646 151.218 0 83.378 68.478 151.201 152.648 151.201 84.177 0 152.652-67.83 152.652-151.209 0-83.386-68.484-151.209-152.652-151.209zM506.259 926.968c-65.953 0-119.614-53.017-119.614-118.177 0-65.171 53.661-118.185 119.614-118.185 65.959 0 119.62 53.017 119.62 118.185 0 65.16-53.661 118.177-119.618 118.177z" />
<glyph unicode="&#xe917;" glyph-name="planet-earth" d="M541.995 957.134v-217.044c58.848 1.74 116.101 8.583 169.558 19.993-7.883 20.341-16.586 39.709-26.085 57.932-40.445 77.602-90.53 125.834-143.473 139.118zM338.53 818.017c-9.499-18.226-18.202-37.591-26.085-57.932 53.457-11.411 110.71-18.254 169.558-19.993v217.044c-52.941-13.284-103.027-61.516-143.473-139.118zM482.003 477.997v202.072c-65.415 1.842-129.237 9.685-188.785 22.885-19.829-68.375-31.398-144.901-33.714-224.957zM824.514 418.005c-2.336-84.967-14.588-166.566-35.681-239.953 45.202-13.39 87.087-30.076 124.262-49.751 66.247 82.785 104.798 183.174 110.903 289.704zM482.003 418.005h-222.499c2.316-80.056 13.884-156.582 33.714-224.957 59.548 13.2 123.37 21.043 188.785 22.885zM199.484 477.997c2.336 84.967 14.588 166.566 35.681 239.953-45.202 13.39-87.087 30.076-124.262 49.751-66.247-82.787-104.8-183.174-110.903-289.704zM730.782 702.954c-59.548-13.2-123.37-21.043-188.785-22.885v-202.072h222.499c-2.316 80.056-13.884 156.582-33.714 224.957zM199.484 418.005h-199.484c6.103-106.532 44.658-206.921 110.905-289.706 37.175 19.675 79.060 36.361 124.26 49.753-21.093 73.386-33.344 154.986-35.681 239.953zM770.077 121.144c-9.359-24.961-19.833-48.68-31.408-70.887-17.458-33.498-36.833-62.494-57.712-86.767 70.713 24.597 135.618 64.748 190.509 118.714-30.776 15.158-64.852 28.204-101.389 38.939zM285.331 50.257c-11.574 22.207-22.049 45.926-31.408 70.887-36.537-10.735-70.613-23.781-101.389-38.939 54.891-53.965 119.796-94.118 190.507-118.712-20.877 24.271-40.253 53.267-57.71 86.765zM482.003-61.134v217.044c-58.848-1.74-116.103-8.583-169.558-19.993 7.883-20.341 16.586-39.709 26.085-57.932 40.447-77.602 90.532-125.834 143.473-139.118zM253.923 774.856c9.359 24.961 19.833 48.68 31.408 70.887 17.458 33.498 36.833 62.494 57.712 86.767-70.713-24.597-135.618-64.748-190.507-118.714 30.774-15.158 64.85-28.202 101.387-38.939zM685.47 77.983c9.499 18.226 18.202 37.591 26.085 57.934-53.457 11.409-110.71 18.254-169.558 19.991v-217.044c52.941 13.284 103.027 61.516 143.473 139.118zM738.669 845.743c11.574-22.207 22.049-45.926 31.408-70.887 36.537 10.735 70.613 23.781 101.389 38.939-54.891 53.965-119.796 94.118-190.507 118.712 20.877-24.271 40.253-53.267 57.71-86.765zM541.995 418.005v-202.072c65.415-1.842 129.237-9.685 188.785-22.885 19.829 68.375 31.398 144.901 33.714 224.957zM788.835 717.95c21.093-73.386 33.344-154.986 35.681-239.953h199.484c-6.103 106.53-44.656 206.919-110.903 289.704-37.177-19.675-79.062-36.361-124.262-49.751z" />
<glyph unicode="&#xe918;" glyph-name="right-double" d="M512 149.333c-0.074 0-0.161-0.001-0.248-0.001-23.564 0-42.667 19.103-42.667 42.667 0 11.844 4.826 22.561 12.619 30.291l0.003 0.003 226.133 225.707-226.133 225.707c-6.377 7.412-10.259 17.129-10.259 27.753 0 23.564 19.103 42.667 42.667 42.667 10.624 0 20.341-3.883 27.809-10.307l-0.056 0.047 256-256c7.668-7.712 12.407-18.343 12.407-30.080s-4.74-22.368-12.409-30.082l-255.998-255.998c-7.667-7.606-18.211-12.323-29.857-12.373h-0.010zM256 149.333c-0.074 0-0.161-0.001-0.248-0.001-23.564 0-42.667 19.103-42.667 42.667 0 11.844 4.826 22.561 12.619 30.291l0.003 0.003 226.133 225.707-226.133 225.707c-7.753 7.753-12.548 18.463-12.548 30.293 0 23.661 19.181 42.841 42.841 42.841 11.83 0 22.541-4.795 30.293-12.548l256-256c7.668-7.712 12.407-18.343 12.407-30.080s-4.74-22.368-12.409-30.082l-255.998-255.998c-7.709-7.861-18.426-12.749-30.284-12.8h-0.010z" />
<glyph unicode="&#xe919;" glyph-name="square-ruler" d="M982.486-36.324h-940.973c-7.642 0-13.838 6.195-13.838 13.838v0 940.973c0 7.642 6.195 13.838 13.838 13.838v0h318.27c7.642 0 13.838-6.195 13.838-13.838v0-608.865h608.865c7.642 0 13.838-6.195 13.838-13.838v0-318.27c0-7.642-6.195-13.838-13.838-13.838v0zM55.351-8.649h913.297v290.595h-608.865c-7.642 0-13.838 6.195-13.838 13.838v0 608.865h-290.595zM219.717-36.324c-7.642 0-13.838 6.195-13.838 13.838v0 41.514c0 7.642 6.195 13.838 13.838 13.838s13.838-6.195 13.838-13.838v0-41.514c0-7.642-6.195-13.838-13.838-13.838v0zM349.115-36.324c-7.642 0-13.838 6.195-13.838 13.838v0 69.189c0 7.642 6.195 13.838 13.838 13.838s13.838-6.195 13.838-13.838v0-69.189c0-7.642-6.195-13.838-13.838-13.838v0zM478.485-36.324c-7.642 0-13.838 6.195-13.838 13.838v0 41.514c0 7.642 6.195 13.838 13.838 13.838s13.838-6.195 13.838-13.838v0-41.514c0-7.642-6.195-13.838-13.838-13.838v0zM607.869-36.324c-7.642 0-13.838 6.195-13.838 13.838v0 69.189c0 7.642 6.195 13.838 13.838 13.838s13.838-6.195 13.838-13.838v0-69.189c0-7.642-6.195-13.838-13.838-13.838v0zM737.252-36.324c-7.642 0-13.838 6.195-13.838 13.838v0 41.514c0 7.642 6.195 13.838 13.838 13.838s13.838-6.195 13.838-13.838v0-41.514c0-7.642-6.195-13.838-13.838-13.838v0zM866.636-36.324c-7.642 0-13.838 6.195-13.838 13.838v0 69.189c0 7.642 6.195 13.838 13.838 13.838s13.838-6.195 13.838-13.838v0-69.189c0-7.642-6.195-13.838-13.838-13.838v0zM83.027 143.568h-41.514c-7.642 0-13.838 6.195-13.838 13.838s6.195 13.838 13.838 13.838v0h41.514c7.642 0 13.838-6.195 13.838-13.838s-6.195-13.838-13.838-13.838v0zM110.703 272.951h-69.189c-7.642 0-13.838 6.195-13.838 13.838s6.195 13.838 13.838 13.838v0h69.189c7.642 0 13.838-6.195 13.838-13.838s-6.195-13.838-13.838-13.838v0zM83.027 402.335h-41.514c-7.642 0-13.838 6.195-13.838 13.838s6.195 13.838 13.838 13.838v0h41.514c7.642 0 13.838-6.195 13.838-13.838s-6.195-13.838-13.838-13.838v0zM110.703 531.719h-69.189c-7.642 0-13.838 6.195-13.838 13.838s6.195 13.838 13.838 13.838v0h69.189c7.642 0 13.838-6.195 13.838-13.838s-6.195-13.838-13.838-13.838v0zM83.027 661.103h-41.514c-7.642 0-13.838 6.195-13.838 13.838s6.195 13.838 13.838 13.838v0h41.514c7.642 0 13.838-6.195 13.838-13.838s-6.195-13.838-13.838-13.838v0zM110.703 790.486h-69.189c-7.642 0-13.838 6.195-13.838 13.838s6.195 13.838 13.838 13.838v0h69.189c7.642 0 13.838-6.195 13.838-13.838s-6.195-13.838-13.838-13.838v0z" />
<glyph unicode="&#xe91a;" glyph-name="calendar" d="M906.664-64h-789.328c-64.726 0-117.336 52.61-117.336 117.336v704c0 64.726 52.61 117.328 117.336 117.328h789.328c64.726 0 117.336-52.6 117.336-117.328v-704c0-64.726-52.61-117.336-117.336-117.336zM117.336 810.664c-29.4 0-53.336-23.93-53.336-53.328v-704c0-29.4 23.938-53.336 53.336-53.336h789.328c29.4 0 53.336 23.938 53.336 53.336v704c0 29.4-23.938 53.328-53.336 53.328zM992 554.664h-960c-17.664 0-32 14.336-32 32s14.336 32 32 32h960c17.664 0 32-14.336 32-32s-14.336-32-32-32zM245.336 704c-17.664 0-32 14.336-32 32v192c0 17.664 14.336 32 32 32s32-14.336 32-32v-192c0-17.664-14.336-32-32-32zM778.664 704c-17.664 0-32 14.336-32 32v192c0 17.664 14.336 32 32 32s32-14.336 32-32v-192c0-17.664-14.336-32-32-32z" />
<glyph unicode="&#xe91b;" glyph-name="down" d="M512 277.333c-0.073 0-0.16-0.001-0.247-0.001-11.721 0-22.338 4.726-30.049 12.377l-255.997 255.997c-7.753 7.753-12.548 18.463-12.548 30.293 0 23.661 19.181 42.841 42.841 42.841 11.83 0 22.541-4.795 30.293-12.548v0l225.707-226.133 225.707 225.707c7.412 6.377 17.129 10.259 27.753 10.259 23.564 0 42.667-19.103 42.667-42.667 0-10.624-3.883-20.341-10.307-27.809l0.047 0.056-256-256c-7.667-7.606-18.211-12.323-29.857-12.373h-0.010z" />
<glyph unicode="&#xe91c;" glyph-name="down-arrow" d="M512 256c-0.010 0-0.021 0-0.033 0-8.826 0-16.814 3.584-22.59 9.375l-320.001 320.001c-12.504 12.504-12.504 32.752 0 45.248s32.752 12.504 45.248 0l297.376-297.376 297.376 297.376c12.504 12.504 32.752 12.504 45.248 0s12.504-32.752 0-45.248l-320-320c-5.777-5.792-13.765-9.376-22.591-9.376-0.012 0-0.023 0-0.035 0h0.002z" />
<glyph unicode="&#xe91d;" glyph-name="email" d="M934 808h-844c-49.524 0-90-40.298-90-90v-540c0-49.72 40.502-90 90-90h844c49.524 0 90 40.298 90 90v540c0 49.714-40.496 90-90 90zM920.18 748l-384.932-386.188c-11.728-11.764-34.762-11.772-46.496 0l-384.932 386.188h816.36zM60 189.030v517.94l258.13-258.97-258.13-258.97zM103.82 148l256.668 257.504 85.77-86.050c35.148-35.262 96.35-35.248 131.486 0l85.77 86.048 256.666-257.502h-816.36zM964 189.030l-258.13 258.97 258.13 258.97v-517.94z" />
<glyph unicode="&#xe91e;" glyph-name="envelope" d="M927.999 832.001h-831.999c-52.938 0-96.001-43.063-96.001-96.001v-576c0-52.938 43.063-96.001 96.001-96.001h831.999c52.938 0 96.001 43.063 96.001 96.001v576c0 52.938-43.063 96.001-96.001 96.001zM927.999 768.001c4.348 0 8.484-0.902 12.265-2.477l-428.264-371.18-428.267 371.18c3.621 1.56 7.836 2.47 12.262 2.477h0.003zM927.999 128.001h-831.999c-17.656 0-32.001 14.343-32.001 32.001v537.905l427.031-370.094c6.032-5.218 13.501-7.813 20.969-7.813s14.937 2.593 20.969 7.813l427.031 370.094v-537.907c-0.002-17.656-14.345-31.999-32.001-31.999z" />
<glyph unicode="&#xe91f;" glyph-name="next" d="M242.746 45.254l402.744 402.746-402.744 402.746c-11.418 11.554-18.471 27.443-18.471 44.979 0 35.346 28.654 64 64 64 17.536 0 33.426-7.053 44.985-18.477l447.994-447.994c11.581-11.582 18.744-27.581 18.744-45.254s-7.163-33.672-18.744-45.254l-448-448c-11.554-11.418-27.443-18.471-44.979-18.471-35.346 0-64 28.654-64 64 0 17.536 7.053 33.426 18.477 44.985l-0.006-0.006z" />
<glyph unicode="&#xe920;" glyph-name="padlock" d="M910.524 474.181c-13.58 13.577-30.058 20.36-49.46 20.36h-23.259v139.644c0 89.211-31.991 165.81-95.994 229.81-63.998 64.003-140.589 96.004-229.813 96.004-89.221 0-165.828-32.001-229.82-96.002-64.003-64.003-95.994-140.599-95.994-229.813v-139.644h-23.269c-19.387 0-35.876-6.783-49.453-20.36-13.577-13.567-20.363-30.055-20.363-49.46v-418.905c0-19.387 6.788-35.881 20.363-49.46 13.577-13.564 30.066-20.355 49.453-20.355h698.168c19.403 0 35.878 6.783 49.46 20.355 13.564 13.58 20.363 30.073 20.363 49.46v418.912c0.010 19.39-6.799 35.876-20.381 49.453zM698.175 494.541h-372.356v139.644c0 51.391 18.185 95.273 54.547 131.631 36.367 36.362 80.242 54.54 131.638 54.54 51.401 0 95.266-18.175 131.636-54.54 36.352-36.355 54.535-80.239 54.535-131.631v-139.644z" />
<glyph unicode="&#xe921;" glyph-name="pin-regular" d="M512 960c-208.583 0-378.27-169.688-378.27-378.27 0-68.667 30.796-142.519 32.086-145.634 9.946-23.609 29.572-60.278 43.724-81.773l259.36-392.978c10.614-16.11 26.323-25.344 43.101-25.344s32.487 9.234 43.101 25.322l259.382 393.001c14.174 21.495 33.777 58.165 43.724 81.773 1.291 3.093 32.064 76.945 32.064 145.634 0 208.583-169.688 378.27-378.27 378.27zM817.175 453.363c-8.878-21.161-27.146-55.272-39.852-74.542l-259.382-393.001c-5.118-7.766-6.742-7.766-11.86 0l-259.382 393.001c-12.705 19.27-30.974 53.403-39.852 74.564-0.378 0.912-28.615 68.89-28.615 128.345 0 184.040 149.728 333.768 333.768 333.768s333.768-149.728 333.768-333.768c0-59.544-28.304-127.7-28.593-128.367zM512 781.968c-110.433 0-200.261-89.85-200.261-200.261s89.828-200.261 200.261-200.261 200.261 89.85 200.261 200.261-89.828 200.261-200.261 200.261zM512 425.949c-85.867 0-155.758 69.869-155.758 155.758s69.891 155.758 155.758 155.758 155.758-69.869 155.758-155.758-69.891-155.758-155.758-155.758z" />
<glyph unicode="&#xe922;" glyph-name="pin-solid" d="M512 960c-188.208 0-341.334-153.126-341.334-341.334 0-56.5 14.126-112.52 40.98-162.208l281.688-509.458c3.75-6.792 10.896-11 18.666-11s14.916 4.208 18.666 11l281.792 509.626c26.75 49.52 40.876 105.542 40.876 162.042 0 188.206-153.126 341.332-341.334 341.332zM512 448c-94.104 0-170.666 76.562-170.666 170.666s76.562 170.666 170.666 170.666 170.666-76.562 170.666-170.666-76.562-170.666-170.666-170.666z" />
<glyph unicode="&#xe923;" glyph-name="right-arrow-angle" d="M683.2 486.4l-302.4 302.4c-28.8 28.8-75.2-16-44.8-44.8l278.4-278.4-276.8-276.8c-28.8-28.8 16-75.2 44.8-44.8l299.2 299.2c14.4 9.6 14.4 30.4 1.6 43.2z" />
<glyph unicode="&#xe924;" glyph-name="half-star" d="M1022.799 564.932c-3.688 11.287-14.77 18.366-33.218 21.235l-308.946 44.92-138.462 280.022c-8.622 16.822-18.67 25.229-30.155 25.229-11.897 0-21.95-8.407-30.152-25.229l-138.477-280.022-308.948-44.92c-18.46-2.871-29.54-9.948-33.228-21.235-3.684-11.287 1.030-23.492 14.156-36.621l224.018-217.861-52.926-307.708c-2.048-13.55-0.821-24.084 3.697-31.691 4.509-7.596 11.489-11.388 20.924-11.388 6.978 0 15.182 2.457 24.617 7.4l276.334 145.248 276.325-145.248c9.435-4.928 17.646-7.4 24.623-7.4 9.444 0 16.43 3.792 20.929 11.388 4.501 7.607 5.732 18.141 3.682 31.691l-52.922 307.708 223.384 217.861c13.546 13.13 18.465 25.335 14.746 36.621zM729.876 367.073l-30.157-28.93 7.394-40.618 36.921-218.484-232.015 122.483v592.654l97.853-198.17 18.45-36.921 40.633-6.156 219.098-31.998-158.177-153.86z" />
<glyph unicode="&#xe925;" glyph-name="mail" d="M510 928c-284.79 0-510-203.886-510-450 0-104.844 41.486-206.42 116.992-286.898 14.94-61.604-3.198-126.882-48.204-171.888-18.816-18.816-5.498-51.214 21.212-51.214 85.488 0 167.888 33.5 229.148 92.542 60.584-21.602 124.688-32.542 190.852-32.542 285.58 0 514 204.484 514 450 0 245.654-228.578 450-514 450zM510 87.6c-65.442 0-128.534 12.312-187.524 35.804-3.287 1.347-7.102 2.129-11.1 2.129-8.752 0-16.628-3.747-22.112-9.725l-0.020-0.022c-36.236-39.598-83.342-67.21-134.654-79.902 28.272 54.178 35.498 118.044 18.288 178.55-1.44 4.969-3.976 9.238-7.339 12.697l0.007-0.007c-68.062 70.106-105.946 159.202-105.946 250.876 0 215.046 202.27 390.4 450.4 390.4 250.336 0 454.4-175.354 454.4-390.4s-204.064-390.4-454.4-390.4z" />
<glyph unicode="&#xe926;" glyph-name="plus-1" d="M1023.999 545.666v-195.332c0-0.001 0-0.002 0-0.003 0-14.709-11.924-26.633-26.633-26.633-0.001 0-0.002 0-0.003 0h-361.058v-361.058c0-0.002 0-0.004 0-0.006 0-14.708-11.923-26.63-26.63-26.63-0.002 0-0.004 0-0.006 0h-195.332c-14.696 0-26.636 11.914-26.636 26.636v361.058h-361.061c-14.71 0.002-26.635 11.926-26.636 26.636v0 195.332c0 14.711 11.925 26.636 26.636 26.636v0h361.061v361.061c0 14.722 11.938 26.636 26.636 26.636h195.332c0.001 0 0.002 0 0.003 0 14.709 0 26.633-11.924 26.633-26.633 0-0.001 0-0.002 0-0.003v0-361.061h361.058c0.002 0 0.004 0 0.006 0 14.708 0 26.63-11.923 26.63-26.63 0-0.002 0-0.004 0-0.006v0z" />
<glyph unicode="&#xe927;" glyph-name="plus-2" d="M932.571 539.429h-310.857c-10.099 0-18.286 8.187-18.286 18.286v0 310.857c0 50.491-40.937 91.429-91.429 91.429s-91.429-40.937-91.429-91.429v-310.857c0-10.099-8.187-18.286-18.286-18.286v0h-310.857c-50.491 0-91.429-40.937-91.429-91.429s40.937-91.429 91.429-91.429h310.857c10.099 0 18.286-8.187 18.286-18.286v0-310.857c0-50.491 40.937-91.429 91.429-91.429s91.429 40.937 91.429 91.429v310.857c0 10.099 8.187 18.286 18.286 18.286v0h310.857c50.491 0 91.429 40.937 91.429 91.429s-40.937 91.429-91.429 91.429z" />
<glyph unicode="&#xe928;" glyph-name="quotation" d="M132.042 811.789c-191.326-102.4-129.347-371.874 86.232-371.874 43.116 0 78.147-13.474 78.147-29.642 0-45.811-86.232-164.379-161.684-226.358-53.895-43.116-59.284-61.979-35.032-88.926 80.842-80.842 358.4 258.695 358.4 433.853 0 188.632-188.632 353.011-326.063 282.947zM681.768 798.316c-102.4-61.979-134.737-169.768-75.453-261.389 48.505-75.453 153.6-121.263 218.274-97.011 78.147 29.642 16.168-102.4-97.011-212.884-70.063-67.368-91.621-107.789-72.758-126.653 37.726-37.726 153.6 26.947 245.221 132.042 105.095 129.347 137.432 280.253 86.232 417.684-37.726 99.705-83.537 140.126-207.495 194.021-8.084 2.695-51.2-16.168-97.011-45.811z" />
<glyph unicode="&#xe929;" glyph-name="screwdriver" d="M781.768 689.546c-0.369-0.256-0.712-0.543-1.029-0.86l-220.308-220.314-6.333 6.328 219.95 219.95c0.307 0.307 0.594 0.645 0.845 1.004l11.807 16.758 11.423-11.423zM532.209 474.87l22.789-22.789c0-0.005 0.005-0.005 0.005-0.005l5.596-5.596-2.959-2.959-28.39 28.39zM716.303 204.099c-18.749-18.749-49.142-18.744-67.891 0-18.749 18.749-18.749 49.147 0 67.891 18.749 18.749 49.142 18.749 67.891 0 18.749-18.744 18.749-49.142 0-67.891zM490.874 352.983l-169.48-169.477c-14.381-14.382-37.78-14.382-52.161 0-6.966 6.963-10.803 16.23-10.803 26.081s3.836 19.113 10.803 26.081l169.777 169.774 52.176-52.173c-0.104-0.097-0.212-0.184-0.312-0.287zM420.981 497.331c3.924 3.927 7.55 8.069 10.881 12.39 5.182 6.318 9.882 13.102 14.088 20.352l221.939-221.937c-13.24-2.724-25.861-9.216-36.132-19.487-9.979-9.979-16.389-22.164-19.246-34.985l-221.463 221.466c10.884 5.791 20.966 13.235 29.933 22.2zM253.987 508.196c-22.94 22.938-34.403 54.333-32.020 86.2l65.859-65.859c5.731-5.729 13.35-8.888 21.455-8.888 0.001 0 0 0 0.001 0 8.104 0 15.725 3.159 21.455 8.888l59.038 59.039c5.731 5.729 8.887 13.353 8.887 21.458-0.001 8.1-3.156 15.724-8.887 21.453l-65.86 65.859c31.869 2.386 63.264-9.078 86.204-32.020 20.852-20.849 32.336-48.573 32.336-78.065 0-24.376-7.853-47.539-22.349-66.616-10.27-12.544-22.652-23.025-37.052-31.355-15.559-8.12-32.947-12.431-51.001-12.431-29.49 0-57.214 11.484-78.066 32.338zM791.107 729.728c-1.603 1.603-3.835 2.417-6.093 2.222s-4.311-1.377-5.617-3.231l-16.681-23.675-219.479-219.479-5.596 5.596c-3 3-7.864 3-10.86 0l-10.102-10.097-65.297 65.3c4.231 12.692 6.433 26.122 6.433 39.895 0 33.592-13.082 65.172-36.835 88.929-30.152 30.152-73.118 42.895-114.933 34.099-2.758-0.584-4.977-2.627-5.78-5.33s-0.062-5.627 1.931-7.619l76.715-76.713c2.83-2.831 4.388-6.595 4.388-10.593 0-4.004-1.559-7.767-4.388-10.598l-59.039-59.034c-2.829-2.831-6.591-4.393-10.593-4.393s-7.764 1.562-10.594 4.393l-76.715 76.713c-1.993 1.992-4.917 2.734-7.619 1.93s-4.746-3.021-5.327-5.78c-8.8-41.815 3.948-84.782 34.1-114.934 23.753-23.752 55.335-36.833 88.927-36.833 15.269 0 30.12 2.714 44.012 7.89l52.085-52.086-169.777-169.774c-9.868-9.866-15.302-22.989-15.302-36.941 0-13.957 5.434-27.075 15.302-36.946 10.185-10.184 23.563-15.273 36.941-15.273s26.757 5.089 36.942 15.278l169.48 169.477c0.1 0.102 0.188 0.21 0.282 0.312l108.921-108.923c1.060-16.778 7.992-33.249 20.818-46.070 27.945-27.95 73.257-27.95 101.207 0 27.945 27.945 27.945 73.257 0 101.207-12.436 12.436-28.314 19.333-44.57 20.7l-121.6 121.6 10.097 10.102c2.995 3 2.995 7.859 0 10.86l-5.601 5.596 219.837 219.843 23.301 16.302c1.859 1.3 3.052 3.359 3.246 5.622 0.2 2.263-0.614 4.495-2.217 6.103l-24.351 24.351z" />
<glyph unicode="&#xe92a;" glyph-name="selling-boat" d="M491.52 591.36v-327.68h-102.4c-55.296 0-102.4-8.192-102.4-20.48s126.976-20.48 337.92-20.48c186.368 0 337.92-8.192 337.92-18.432 0-8.192-18.432-40.96-40.96-69.632-45.056-57.344-51.2-75.776-20.48-75.776 24.576 0 122.88 143.36 122.88 178.176 0 20.48-61.44 26.624-245.76 26.624h-245.76v327.68c0 204.8-8.192 327.68-20.48 327.68s-20.48-122.88-20.48-327.68zM573.44 806.4c0-61.44 10.24-112.64 20.48-112.64 12.288 0 20.48 38.912 20.48 86.016v86.016l63.488-61.44c71.68-67.584 174.080-270.336 192.512-380.928l12.288-77.824h-268.288v112.64c0 61.44-8.192 112.64-20.48 112.64s-20.48-57.344-20.48-133.12v-133.12h163.84c131.072 0 167.936 6.144 178.176 32.768 18.432 51.2-51.2 274.432-120.832 382.976-57.344 88.064-172.032 198.656-206.848 198.656-8.192 0-14.336-51.2-14.336-112.64zM290.816 572.928c-69.632-133.12-126.976-247.808-126.976-256 0-6.144 65.536-12.288 143.36-12.288h143.36v256c0 141.312-6.144 256-16.384 256-8.192 0-71.68-108.544-143.36-243.712zM409.6 519.68v-174.080h-94.208c-51.2 0-90.112 8.192-86.016 18.432 10.24 32.768 169.984 329.728 176.128 329.728 2.048 0 4.096-77.824 4.096-174.080zM573.44 632.32c0-10.24 10.24-20.48 20.48-20.48 12.288 0 20.48 10.24 20.48 20.48 0 12.288-8.192 20.48-20.48 20.48-10.24 0-20.48-8.192-20.48-20.48zM0 232.96c0-32.768 122.88-180.224 137.216-165.888 6.144 6.144-8.192 34.816-32.768 65.536-53.248 67.584-55.296 90.112-2.048 90.112 22.528 0 40.96 10.24 40.96 20.48 0 12.288-32.768 20.48-71.68 20.48-49.152 0-71.68-10.24-71.68-30.72zM204.8 243.2c0-10.24 10.24-20.48 20.48-20.48 12.288 0 20.48 10.24 20.48 20.48 0 12.288-8.192 20.48-20.48 20.48-10.24 0-20.48-8.192-20.48-20.48zM36.864 42.496c-20.48-4.096-36.864-16.384-36.864-28.672s18.432-16.384 38.912-10.24c22.528 6.144 59.392-4.096 81.92-18.432 36.864-26.624 49.152-26.624 94.208 4.096 47.104 30.72 55.296 30.72 102.4 0 45.056-30.72 55.296-30.72 98.304-2.048 43.008 26.624 51.2 26.624 94.208-4.096 45.056-30.72 53.248-30.72 104.448 0 49.152 28.672 59.392 30.72 98.304 2.048 38.912-26.624 49.152-26.624 94.208 2.048 47.104 30.72 55.296 30.72 102.4 0 43.008-28.672 59.392-30.72 83.968-10.24 43.008 36.864 38.912 65.536-10.24 51.2-20.48-6.144-57.344-2.048-79.872 8.192-28.672 16.384-55.296 16.384-92.16-2.048-40.96-16.384-65.536-16.384-104.448 0-36.864 16.384-65.536 18.432-98.304 2.048-28.672-12.288-63.488-14.336-96.256-2.048s-67.584 12.288-96.256-2.048c-32.768-14.336-61.44-14.336-98.304 2.048-38.912 18.432-63.488 18.432-102.4 0-34.816-16.384-65.536-16.384-96.256-4.096-26.624 12.288-63.488 16.384-81.92 12.288z" />
<glyph unicode="&#xe92b;" glyph-name="share" d="M812 296c-59.282 0-111.522-29.162-144.334-73.51l-283.686 145.262c4.71 16.054 8.020 32.692 8.020 50.248 0 23.812-4.882 46.45-13.316 67.272l296.89 178.656c33.040-38.776 81.604-63.928 136.426-63.928 99.258 0 180 80.742 180 180s-80.742 180-180 180c-99.258 0-180-80.742-180-180 0-22.874 4.71-44.572 12.524-64.716l-297.774-179.18c-33.012 37.624-80.876 61.896-134.75 61.896-99.258 0-180-80.742-180-180s80.742-180 180-180c60.26 0 113.382 30.018 146.070 75.612l282.752-144.79c-5.208-16.812-8.822-34.322-8.822-52.822 0-99.258 80.742-180 180-180s180 80.742 180 180c0 99.258-80.742 180-180 180z" />
<glyph unicode="&#xe92c;" glyph-name="star" d="M957.152 520l-199.328-194.304 47.072-274.432c2.048-12-2.88-24.128-12.736-31.296-5.568-4.064-12.192-6.112-18.816-6.112-5.088 0-10.208 1.216-14.88 3.68l-246.464 129.568-246.432-129.536c-10.752-5.696-23.84-4.768-33.696 2.432-9.856 7.168-14.784 19.296-12.736 31.296l47.072 274.432-199.36 194.272c-8.704 8.512-11.872 21.248-8.096 32.8s13.792 20.032 25.856 21.792l275.488 40 123.2 249.664c10.784 21.856 46.624 21.856 57.408 0l123.2-249.664 275.488-40c12.064-1.76 22.080-10.208 25.856-21.792s0.608-24.256-8.096-32.8z" />
<glyph unicode="&#xe92d;" glyph-name="user" d="M420.704 466.736c67.764 0 126.444 24.306 174.389 72.26 47.946 47.944 72.25 106.608 72.25 174.379 0 67.752-24.304 126.422-72.258 174.383-47.954 47.938-106.626 72.242-174.381 72.242-67.774 0-126.44-24.304-174.383-72.25s-72.258-106.618-72.258-174.375c0-67.772 24.312-126.444 72.266-174.389 47.954-47.938 106.626-72.25 174.375-72.25zM852.257 172.597c-1.384 19.952-4.18 41.72-8.298 64.702-4.156 23.158-9.506 45.048-15.914 65.056-6.616 20.68-15.616 41.1-26.74 60.672-11.548 20.312-25.11 38-40.33 52.554-15.914 15.226-35.398 27.468-57.93 36.4-22.452 8.88-47.336 13.38-73.952 13.38-10.454 0-20.562-4.288-40.086-17 6.807 3.669-6.807-5.213-20.464-14.035l-21.294-12.885c-13.414-8.548-31.586-16.556-54.032-23.806-21.898-7.086-44.132-10.68-66.078-10.68-21.944 0-44.172 3.594-66.094 10.68-22.42 7.244-40.592 15.25-53.992 23.798-15.54 9.93-29.6 18.992-41.796 26.938-19.5 12.71-29.618 17-40.070 17-26.626 0-51.5-4.508-73.946-13.4-22.516-8.914-42.008-21.156-57.938-36.398-15.21-14.562-28.78-32.24-40.312-52.546-11.116-19.57-20.116-39.984-26.742-60.68-6.4-20.008-11.75-41.89-15.906-65.048-4.118-22.952-6.914-44.726-8.298-64.726-1.303-17.919-2.046-38.82-2.046-59.895 0-0.201 0-0.403 0-0.604v0.032c0-53.454 16.992-96.726 50.5-128.639 33.094-31.494 76.882-47.47 130.131-47.47h493.062c53.25 0 97.022 15.968 130.123 47.468 33.516 31.892 50.508 75.172 50.508 128.649-0.008 20.632-0.702 40.984-2.070 60.484z" />
<glyph unicode="&#xe92e;" glyph-name="tv-music" d="M874.667 832h-725.333c-58.881-0.073-106.594-47.786-106.667-106.66v-448.007c0.073-58.881 47.786-106.594 106.66-106.667h256.007v-64h-213.333c-11.782 0-21.333-9.551-21.333-21.333s9.551-21.333 21.333-21.333v0h640c11.782 0 21.333 9.551 21.333 21.333s-9.551 21.333-21.333 21.333v0h-213.333v64h256c58.881 0.073 106.594 47.786 106.667 106.66v448.007c-0.073 58.881-47.786 106.594-106.66 106.667h-0.007zM576 106.667h-128v64h128zM938.667 277.333c0-35.346-28.654-64-64-64v0h-725.333c-35.346 0-64 28.654-64 64v0 448c0 35.346 28.654 64 64 64v0h725.333c35.346 0 64-28.654 64-64v0zM596.843 538.283l-105.643 60.992c-6.12 3.594-13.479 5.716-21.333 5.716-23.564 0-42.666-19.102-42.667-42.665v0-121.984c0.001-23.564 19.103-42.666 42.667-42.666 7.855 0 15.214 2.123 21.535 5.825l-0.201-0.109 105.664 60.992c12.842 7.515 21.331 21.241 21.331 36.949s-8.489 29.435-21.13 36.84l-0.201 0.109zM469.845 440.341v121.984l105.643-60.992zM512 725.333c-123.712 0-224-100.288-224-224s100.288-224 224-224c123.712 0 224 100.288 224 224v0c-0.146 123.653-100.347 223.855-223.986 224h-0.014zM512 320c-100.148 0-181.333 81.186-181.333 181.333s81.186 181.333 181.333 181.333c100.148 0 181.333-81.186 181.333-181.333v0c-0.121-100.099-81.235-181.212-181.322-181.333h-0.012z" />
<glyph unicode="&#xe92f;" glyph-name="oar-converted" d="M60.339 958.532c-7.647-2.2-13.24-6.82-34.857-28.788-17.785-18.073-21.583-22.609-23.361-27.891-2.602-7.741-2.697-15.052-0.295-23.032 3.454-11.478 6.193-14.029 37.215-34.66l29.439-19.581 248.32-248.619-33.472-33.24h-93.211l-189.475-189.424v-12.811l147.843-147.843h12.79l93.57 93.439c54.042 53.968 94.327 95.179 95.362 97.558 1.425 3.271 1.794 13.279 1.794 48.66v44.539l31.999 31.923 31.999-31.923v-44.539c0-35.38 0.369-45.388 1.794-48.66 1.035-2.379 41.32-43.59 95.362-97.558l93.57-93.439h12.79l147.843 147.843v12.811l-189.475 189.424h-93.211l-33.472 33.24 248.32 248.65 27.519 18.21c30.135 19.941 33.658 22.885 37.59 31.42s3.765 22.935-0.36 31.006c-3.874 7.581-44.697 48.165-51.717 51.414-11.238 5.202-27.21 3.484-37.051-3.982-2.916-2.212-11.721-14.212-23.274-31.719l-18.583-28.159-249.618-249.57-77.562 77.41h-6.16c-5.298 0-6.768-0.609-10.51-4.353-4.681-4.68-5.787-10.902-2.937-16.531 0.777-1.537 58.917-60.396 129.196-130.795 139.090-139.327 131.598-131.019 127.989-141.955-2.758-8.359-12.765-13.818-21.472-11.715-2.43 0.588-69.357 66.658-215.040 212.287l-211.51 211.434 24.91 25.005 37.135-36.993c20.425-20.347 38.394-37.63 39.931-38.409 5.541-2.803 11.623-1.725 16.743 2.967 4.182 3.832 4.782 5.113 4.782 10.215v5.833l-87.184 87.73-17.602 26.88c-9.681 14.784-19.387 28.294-21.57 30.025-8.241 6.531-22.467 9.246-32.824 6.265zM75.729 927.041c1.038-1.233 7.243-10.522 13.789-20.643l11.901-18.403-29.521-29.523-18.349 11.905c-10.092 6.549-19.356 12.778-20.589 13.843-5.070 4.384-3.102 7.684 15.984 26.803 19.087 19.123 22.468 21.144 26.785 16.017zM719.023 911.057c19.14-19.105 21.12-22.423 16.017-26.836-1.233-1.065-10.497-7.294-20.589-13.843l-18.349-11.905-29.521 29.523 11.901 18.403c6.546 10.12 12.751 19.41 13.789 20.643 4.288 5.092 7.65 3.084 26.752-15.984zM551.055 718.097l-120.967-120.967-24.957 24.957 241.884 241.893 25.008-24.913-120.967-120.969zM244.723 766.76c-8.391-5.257-9.651-16.035-2.691-22.995 6.762-6.762 17.181-5.623 22.671 2.475 8.635 12.739-6.915 28.708-19.98 20.52zM350.73 542.070l12.118-12.169-55.663-55.753c-30.616-30.664-57.22-56.58-59.121-57.591-12.679-6.736-28.291 6.423-24.765 20.875 0.574 2.356 19.645 22.345 57.402 60.168 31.096 31.152 56.848 56.64 57.225 56.64s6.138-5.476 12.804-12.169zM226.365 485.441c-32.224-32.518-32.445-32.883-32.445-53.44 0-10.984 0.444-13.707 3.133-19.2 4.354-8.892 14.004-18.7 22.762-23.139 6.697-3.393 8.574-3.741 20.184-3.741 20.557 0 20.922 0.22 53.44 32.445l27.84 27.586v-51.079l-166.402-166.386-118.392 118.392 166.386 166.402h51.079l-27.586-27.84zM648.321 430.079l83.193-83.2-118.392-118.392-166.402 166.386v51.079l27.84-27.586c32.518-32.224 32.883-32.445 53.44-32.445 11.61 0 13.486 0.348 20.184 3.741 8.758 4.438 18.408 14.247 22.762 23.139 2.689 5.493 3.133 8.215 3.133 19.2 0 20.557-0.22 20.922-32.445 53.44l-27.586 27.84h51.079l83.193-83.202z" />
<glyph unicode="&#xe930;" glyph-name="star-rank" d="M312 68.8c-6.4 4.8-14.4 9.6-20.8 12.8 1.6 12.8 0 27.2-3.2 41.6-6.4 24-19.2 46.4-36.8 67.2-16-12.8-24-35.2-20.8-59.2-11.2 11.2-22.4 22.4-32 33.6 6.4 11.2 9.6 25.6 9.6 40 1.6 24-3.2 48-14.4 72-20.8-8-33.6-28.8-36.8-52.8-8 12.8-14.4 27.2-20.8 40 9.6 9.6 17.6 22.4 22.4 36.8 8 22.4 9.6 46.4 4.8 72-22.4-3.2-41.6-19.2-51.2-43.2-4.8 16-8 30.4-9.6 46.4 12.8 6.4 24 17.6 32 30.4 12.8 19.2 22.4 43.2 24 68.8-24 3.2-48-9.6-62.4-32 0 16 1.6 33.6 3.2 49.6 14.4 3.2 28.8 11.2 41.6 20.8 17.6 14.4 32 35.2 41.6 59.2-22.4 9.6-49.6 3.2-70.4-16 4.8 16 9.6 33.6 16 49.6 16-1.6 32 3.2 46.4 9.6 20.8 9.6 40 25.6 56 48-19.2 16-48 16-73.6 1.6 9.6 16 19.2 30.4 30.4 44.8 14.4-6.4 32-6.4 49.6-3.2 24 4.8 48 14.4 70.4 32-14.4 20.8-43.2 28.8-73.6 20.8 22.4 20.8 46.4 40 75.2 56 8 4.8 11.2 14.4 6.4 22.4s-16 11.2-24 6.4c-30.4-17.6-57.6-38.4-81.6-60.8 12.8 32 14.4 60.8 0 83.2-28.8-19.2-49.6-51.2-54.4-78.4-4.8-20.8-1.6-38.4 8-52.8-12.8-16-24-33.6-33.6-49.6 3.2 33.6-4.8 62.4-24 78.4-22.4-30.4-32-65.6-28.8-92.8 1.6-20.8 9.6-36.8 22.4-48-8-19.2-14.4-36.8-19.2-56-6.4 32-20.8 57.6-44.8 68.8-12.8-35.2-12.8-70.4-3.2-96 8-19.2 19.2-32 35.2-40-3.2-19.2-3.2-38.4-3.2-57.6-14.4 28.8-35.2 48-60.8 51.2-3.2-36.8 6.4-70.4 22.4-92.8 11.2-16 27.2-25.6 43.2-28.8 1.6-19.2 6.4-36.8 9.6-54.4-20.8 22.4-44.8 35.2-70.4 32 6.4-36.8 24-67.2 46.4-83.2 14.4-12.8 32-17.6 46.4-16 6.4-16 14.4-33.6 22.4-48-27.2 11.2-52.8 17.6-75.2 8 16-33.6 41.6-59.2 67.2-70.4 17.6-8 33.6-8 48-4.8 11.2-14.4 22.4-27.2 35.2-40-27.2 6.4-51.2 4.8-68.8-9.6 25.6-28.8 59.2-46.4 88-51.2 17.6-3.2 33.6 0 46.4 6.4 6.4-4.8 14.4-9.6 20.8-14.4 12.8-8 28.8-3.2 35.2 9.6 6.4 11.2 3.2 25.6-8 32zM948.8 318.4c4.8 17.6 8 36.8 9.6 54.4 16 3.2 30.4 12.8 43.2 28.8 16 22.4 25.6 56 22.4 92.8-25.6-3.2-46.4-24-60.8-51.2 0 19.2-1.6 38.4-3.2 57.6 14.4 6.4 27.2 20.8 35.2 40 9.6 25.6 11.2 60.8-3.2 96-24-11.2-38.4-36.8-44.8-68.8-4.8 19.2-11.2 38.4-19.2 56 12.8 11.2 20.8 27.2 22.4 48 3.2 27.2-6.4 62.4-28.8 92.8-20.8-16-27.2-46.4-24-78.4-12.8 17.6-24 33.6-36.8 49.6 9.6 12.8 12.8 32 8 52.8-4.8 27.2-25.6 59.2-57.6 84.8-14.4-20.8-12.8-51.2 0-83.2-24 22.4-51.2 43.2-81.6 60.8-8 4.8-19.2 1.6-24-6.4s-1.6-17.6 6.4-22.4c27.2-16 52.8-35.2 75.2-56-30.4 8-59.2 0-73.6-20.8 22.4-17.6 46.4-27.2 70.4-32 17.6-3.2 35.2-3.2 49.6 3.2 11.2-14.4 22.4-30.4 30.4-44.8-25.6 14.4-54.4 14.4-73.6-1.6 16-20.8 35.2-38.4 56-48 16-8 32-11.2 46.4-9.6 6.4-16 11.2-32 16-49.6-20.8 19.2-48 25.6-70.4 16 9.6-24 24-44.8 41.6-59.2 12.8-11.2 27.2-17.6 41.6-20.8 1.6-16 3.2-33.6 3.2-49.6-14.4 22.4-38.4 35.2-62.4 32 3.2-25.6 11.2-49.6 24-68.8 8-12.8 19.2-24 32-30.4-3.2-16-6.4-30.4-9.6-46.4-9.6 24-27.2 41.6-51.2 43.2-4.8-25.6-1.6-51.2 4.8-72 4.8-14.4 11.2-27.2 22.4-36.8-6.4-14.4-12.8-27.2-20.8-40-3.2 24-16 44.8-36.8 52.8-11.2-24-16-48-14.4-72 0-14.4 3.2-28.8 9.6-40-9.6-11.2-20.8-22.4-32-33.6 3.2 24-3.2 46.4-20.8 59.2-17.6-20.8-30.4-43.2-36.8-67.2-3.2-14.4-4.8-28.8-3.2-41.6-6.4-4.8-12.8-9.6-20.8-12.8-11.2-6.4-14.4-20.8-9.6-32 6.4-12.8 22.4-17.6 35.2-9.6 8 4.8 14.4 9.6 20.8 14.4 12.8-6.4 28.8-9.6 46.4-6.4 28.8 4.8 62.4 22.4 88 51.2-17.6 14.4-41.6 16-68.8 9.6 12.8 12.8 24 25.6 35.2 40 14.4-3.2 30.4-1.6 48 4.8 25.6 11.2 51.2 35.2 67.2 70.4-22.4 9.6-48 3.2-72-11.2 8 16 16 32 22.4 48 16 0 32 4.8 46.4 16 20.8 17.6 40 46.4 46.4 83.2-20.8 0-44.8-14.4-65.6-35.2zM708.8 171.2l-33.6 193.6 140.8 137.6c4.8 4.8 6.4 11.2 4.8 16-1.6 6.4-6.4 9.6-12.8 11.2l-195.2 28.8-86.4 176c-3.2 4.8-8 9.6-14.4 9.6s-11.2-3.2-14.4-9.6l-86.4-176-195.2-28.8c-6.4-1.6-11.2-4.8-12.8-11.2s0-12.8 4.8-16l140.8-137.6-33.6-193.6c-1.6-6.4 1.6-12.8 6.4-16s11.2-4.8 17.6-1.6l172.8 92.8 174.4-91.2c1.6-1.6 4.8-1.6 8-1.6s6.4 1.6 9.6 3.2c3.2 3.2 6.4 8 4.8 14.4z" />
<glyph unicode="&#xe931;" glyph-name="left" d="M245.060 411.451l460.488-460.335c20.206-20.155 52.943-20.155 73.2 0 20.206 20.155 20.206 52.892 0 73.047l-423.963 423.81 423.912 423.81c20.206 20.155 20.206 52.892 0 73.098-20.206 20.155-52.994 20.155-73.2 0l-460.488-460.331c-19.896-19.947-19.896-53.198 0.051-73.098z" />
<glyph unicode="&#xe932;" glyph-name="canoe" d="M982.72 116.8l-117.76 117.76c-5.758 5.768-13.718 9.336-22.511 9.336-3.624 0-7.107-0.606-10.353-1.723l0.224 0.067-51.84-17.28-58.24 58.24c151.040 162.24 234.24 372.16 223.040 567.040-0.902 16.237-13.843 29.178-29.997 30.076l-0.083 0.004c-195.2 11.2-404.8-72-567.040-223.040l-58.24 58.24 17.28 51.84c3.84 11.52 0.96 24.32-7.68 32.64l-117.76 117.76c-6.080 6.080-14.080 9.28-22.72 9.28s-16.64-3.52-22.72-9.28l-94.4-94.4c-5.782-5.77-9.358-13.747-9.358-22.56s3.577-16.79 9.358-22.56v0l117.76-117.76c6.080-6.080 14.4-9.28 22.72-9.28 3.52 0 6.72 0.64 10.24 1.6l51.84 17.28 58.24-58.24c-151.040-162.24-234.24-372.16-223.040-567.040 0.96-16.32 13.76-29.12 30.080-30.080 11.52-0.64 23.36-0.96 34.88-0.96 184.96 0 379.52 81.92 532.16 224l58.24-58.24-17.28-51.84c-3.84-11.52-0.96-24.32 7.68-32.64l117.76-117.76c6.080-6.080 14.080-9.28 22.72-9.28s16.64 3.52 22.72 9.28l94.4 94.4c5.782 5.77 9.358 13.747 9.358 22.56s-3.577 16.79-9.358 22.56v0zM879.68 817.6h2.24c0.64-168.96-74.56-347.84-205.12-488.96l-48.64 48.64 19.84 19.84c24.96 24.96 38.72 58.24 38.72 93.44s-13.76 68.48-38.72 93.44c-51.52 51.52-135.36 51.52-186.56 0l-19.84-19.84-48.64 48.64c140.48 130.24 318.4 205.12 486.72 205.12zM421.76 453.44l19.84 19.84 96.32-96.32-19.84-19.84c-26.56-26.56-69.76-26.56-96.32 0-12.8 12.8-19.84 30.080-19.84 48s7.040 35.2 19.84 48zM486.72 518.4l19.84 19.84c13.12 13.12 30.72 19.84 48 19.84s34.88-6.72 48-19.84c12.8-12.8 19.84-30.080 19.84-48s-7.040-35.2-19.84-48l-19.84-19.84-96.32 96.32zM190.4 720.32l-81.28 81.28 48.96 48.96 81.28-81.28-12.16-36.8zM144.32 78.080h-2.24c-0.64 168.96 74.56 347.84 205.12 488.96l48.64-48.64-19.84-19.84c-24.96-24.96-38.72-58.24-38.72-93.44s13.76-68.48 38.72-93.44c23.904-23.933 56.943-38.737 93.44-38.737s69.535 14.805 93.439 38.736l19.841 19.841 48.64-48.64c-140.48-130.24-318.4-205.12-486.72-205.12zM865.6 45.12l-81.28 81.28 12.16 36.8 36.8 12.16 81.28-81.28z" />
<glyph unicode="&#xe933;" glyph-name="direction" d="M978.484 493.508c-11.496 0-21.978-4.318-29.998-11.374h-85.438c-10.032 103.976-65.39 194.895-146.035 252.701l42.756 74.056c17.992 6.076 31 23.080 31 43.096 0 25.094-20.416 45.512-45.512 45.512-25.094 0-45.512-20.416-45.512-45.512 0-3.072 0.316-6.068 0.898-8.97l-42.694-73.954c-44.5 20.312-93.924 31.644-145.951 31.644s-101.454-11.332-145.957-31.644l-42.694 73.946c0.582 2.906 0.898 5.908 0.898 8.98 0 25.094-20.416 45.512-45.512 45.512s-45.512-20.416-45.512-45.512c0-20.016 13.004-37.016 30.994-43.094l42.76-74.060c-80.642-57.806-136.003-148.725-146.031-252.709h-85.422c-8.022 7.064-18.51 11.382-30.010 11.382-25.096 0-45.512-20.416-45.512-45.51s20.416-45.512 45.512-45.512c11.496 0 21.978 4.316 29.998 11.374h85.438c10.032-103.98 65.39-194.895 146.035-252.701l-42.754-74.048c-17.996-6.076-31.004-23.078-31.004-43.098 0-25.094 20.416-45.512 45.512-45.512 25.094 0 45.512 20.416 45.512 45.512 0 3.070-0.314 6.066-0.894 8.966l42.696 73.954c44.504-20.31 93.926-31.642 145.953-31.642s101.454 11.332 145.957 31.644l42.692-73.946c-0.569-2.697-0.896-5.797-0.898-8.972v-0.002c0-25.094 20.416-45.512 45.512-45.512 25.094 0 45.512 20.416 45.512 45.512 0 20.016-13.004 37.020-30.996 43.096l-42.756 74.056c80.642 57.804 135.999 148.725 146.031 252.709h85.428c8.020-7.064 18.508-11.382 30.006-11.382 25.094 0 45.512 20.416 45.512 45.512-0.008 25.086-20.424 45.502-45.52 45.502zM511.998 732.441c39.602 0 77.334-8.146 111.628-22.83l-92.924-160.953c-6.068 1.124-12.312 1.744-18.702 1.744s-12.634-0.616-18.7-1.744l-92.93 160.951c34.29 14.686 72.024 22.832 111.628 22.832zM546.132 447.998c0-18.822-15.312-34.134-34.134-34.134s-34.134 15.312-34.134 34.134c0 18.822 15.312 34.134 34.134 34.134 18.822-0.002 34.134-15.314 34.134-34.134zM341.301 675.383l92.904-160.909c-7.883-9.155-14.24-19.895-18.51-31.638l-0.226-0.712h-185.857c9.464 78.788 51.25 147.775 111.69 193.259zM341.305 220.609c-60.438 45.486-102.23 114.468-111.696 193.251h185.861c4.496-12.451 10.851-23.187 18.845-32.474l-0.113 0.134-92.898-160.911zM511.998 163.553c-39.602 0-77.334 8.146-111.628 22.832l92.926 160.951c6.068-1.124 12.31-1.744 18.7-1.744s12.636 0.616 18.702 1.744l92.926-160.949c-34.288-14.686-72.022-22.834-111.626-22.834zM682.695 220.611l-92.902 160.911c7.882 9.152 14.238 19.89 18.506 31.63l0.226 0.712 185.859 0.002c-9.462-78.786-51.25-147.769-111.69-193.255zM608.528 482.13c-4.497 12.451-10.853 23.189-18.847 32.476l0.113-0.134 92.9 160.913c60.438-45.484 102.228-114.468 111.696-193.253l-185.861-0.002z" />
<glyph unicode="&#xe934;" glyph-name="guard" d="M881.002 237.914l-0.352 0.586c-0.86 1.406-1.742 2.8-2.644 4.184-2.263 3.49-4.203 6.266-6.222 8.981l0.328-0.461c-0.254 0.344-0.49 0.696-0.744 1.038-0.182 0.242-0.374 0.472-0.556 0.714-1.312 1.741-2.339 3.049-3.384 4.342l0.252-0.322c-0.372 0.464-0.74 0.93-1.114 1.388-1.276 1.553-2.333 2.798-3.408 4.027l0.174-0.203c-0.456 0.526-0.906 1.056-1.366 1.576-1.035 1.157-1.943 2.146-2.864 3.124l0.080-0.086c-0.698 0.752-1.39 1.508-2.1 2.246-0.532 0.552-1.082 1.088-1.622 1.632-20.712 20.964-46.234 36.274-74.97 44.734-0.389 0.123-0.893 0.247-1.406 0.345l-0.092 0.015-135.6 25.19c-0.24 0.044-0.48 0.056-0.72 0.094-1.596 0.272-3.435 0.427-5.311 0.427-4.824 0-9.408-1.028-13.544-2.877l0.211 0.084c-4.72 5.796-7.83 13.758-7.83 21.114v24.548c9.4 6.038 17.534 12.141 25.2 18.771l-0.276-0.233c33.602 28.932 54.764 70.694 59.33 116.252 24.672 1.14 44.39 21.568 44.39 46.516v34.976c0 0.024 0 0.052 0 0.079 0 14.43-6.592 27.32-16.928 35.825l-0.080 0.064v80.404c49.028 24.162 59.682 52.332 59.682 72.208 0 34.104-31.764 76.792-82.896 111.408-32.758 22.174-101.342 59.376-192.622 59.376s-159.862-37.202-192.62-59.376c-51.132-34.614-82.896-77.302-82.896-111.408 0-19.876 10.654-48.046 59.682-72.208v-80.404c-10.417-8.569-17.008-21.461-17.008-35.891 0-0.027 0-0.054 0-0.081v0.004-34.976c0-24.948 19.718-45.376 44.39-46.516 4.564-45.558 25.728-87.322 59.33-116.252 7.39-6.397 15.524-12.5 24.070-18.021l0.854-0.517v-24.548c0-7.356-3.11-15.316-7.83-21.112-3.936 1.779-8.534 2.815-13.374 2.815-2.118 0-4.189-0.198-6.196-0.578l0.206 0.032-135.598-25.19c-0.605-0.113-1.109-0.237-1.602-0.387l0.104 0.027c-28.722-8.456-54.232-23.754-74.94-44.702-0.554-0.558-1.114-1.108-1.66-1.672-0.7-0.726-1.382-1.474-2.070-2.214-0.837-0.891-1.756-1.89-2.663-2.9l-0.151-0.17c-0.454-0.512-0.898-1.036-1.348-1.554-0.91-1.037-1.972-2.287-3.016-3.553l-0.232-0.289c-0.374-0.456-0.738-0.92-1.108-1.38-0.789-0.966-1.817-2.275-2.826-3.6l-0.31-0.424c-0.182-0.242-0.374-0.47-0.556-0.714-0.256-0.342-0.492-0.694-0.744-1.038-1.686-2.249-3.625-5.024-5.484-7.857l-0.406-0.659c-0.585-0.847-1.576-2.404-2.544-3.976l-0.456-0.796c-16.578-27.318-25.296-58.338-25.296-90.692v-18.288c0-8.286 6.718-15.004 15.004-15.004s15.004 6.718 15.004 15.004v0 18.288c0 0.032 0 0.069 0 0.107 0 15.15 2.319 29.758 6.622 43.488l-0.278-1.029c8.83-7.022 19.546-10.762 30.684-10.762 1.78 0 3.574 0.096 5.368 0.29 13.138 1.408 24.942 7.85 33.236 18.136l16.328 20.25c6.833 8.375 10.972 19.182 10.972 30.955 0 1.892-0.107 3.759-0.315 5.596l0.021-0.225c-1.157 10.748-5.625 20.28-12.347 27.74l0.039-0.044c3.311 1.429 7.701 3.024 12.183 4.411l1.047 0.279 86.522 16.072 68.656-96.074c6.872-9.612 17.632-14.912 28.792-14.912 5.059 0.006 9.87 1.061 14.229 2.96l-0.231-0.090 4.57 1.942 19.98-23.228-28.818-207.076h-188.548v121.666c0 8.288-6.718 15.004-15.004 15.004s-15.004-6.716-15.004-15.004v-121.666h-60.020c-10.302 0-18.68 8.38-18.68 18.68v74.428c0 8.286-6.718 15.004-15.004 15.004s-15.004-6.718-15.004-15.004v-74.428c0-26.846 21.842-48.69 48.69-48.69h691.216c26.848 0 48.69 21.844 48.69 48.69v162.53c-0.004 32.356-8.72 63.376-25.298 90.694zM216.306 236.536l-16.328-20.252c-3.16-3.918-7.762-6.563-12.987-7.127l-0.085-0.007c-0.633-0.073-1.366-0.115-2.11-0.115-4.632 0-8.883 1.628-12.213 4.343l0.035-0.028-6.262 5.048c1.717 3.072 3.114 5.375 4.572 7.637l-0.352-0.583 0.052 0.080c1.26 1.976 2.586 3.9 3.936 5.806 0.41 0.576 0.818 1.152 1.236 1.724 1.464 2.003 2.681 3.584 3.93 5.139l-0.218-0.281c0.328 0.412 0.65 0.83 0.982 1.238 1.607 1.961 3.054 3.641 4.54 5.286l-0.112-0.126c0.442 0.494 0.892 0.978 1.34 1.464 1.556 1.693 3.055 3.25 4.59 4.774l0.008 0.008c0.134 0.134 0.266 0.272 0.402 0.406 5.667 5.561 11.816 10.679 18.361 15.269l0.465 0.309 3.288-2.652c3.918-3.16 6.564-7.761 7.127-12.987l0.007-0.085c0.073-0.631 0.115-1.362 0.115-2.102 0-4.635-1.629-8.889-4.346-12.221l0.028 0.035zM810.624 263.9l3.288 2.652c7.010-4.898 13.159-10.016 18.848-15.6l-0.022 0.022c0.136-0.134 0.266-0.272 0.402-0.406 1.541-1.531 3.040-3.089 4.505-4.68l0.093-0.102c0.448-0.486 0.898-0.97 1.34-1.464 1.371-1.517 2.819-3.197 4.228-4.91l0.2-0.25c0.332-0.408 0.654-0.826 0.982-1.238 1.458-1.808 3.082-3.951 4.647-6.14l0.301-0.442c1.062-1.453 2.376-3.372 3.644-5.322l0.344-0.564c1.115-1.692 2.513-3.996 3.847-6.341l0.373-0.713-6.262-5.048c-3.297-2.687-7.55-4.315-12.184-4.315-0.741 0-1.473 0.042-2.192 0.123l0.088-0.008c-5.312 0.571-9.914 3.217-13.045 7.099l-0.029 0.037-16.328 20.25c-6.736 8.352-5.418 20.624 2.932 27.36zM631.478 307.906c0.023 0.017 0.043 0.032 0.062 0.048l-0.002-0.002 3.926 2.936c0.518 0.388 1.172 0.621 1.88 0.621 0.199 0 0.394-0.018 0.583-0.054l-0.020 0.003 15.738-2.924-60.508-84.672c-1.005-1.409-2.635-2.317-4.476-2.317-0.784 0-1.529 0.164-2.203 0.461l0.035-0.014-44.608 18.95 89.592 66.964zM511.998 256.070l-87.434 65.352c8.26 10.844 13.246 24.646 13.246 38.384v8.784c23.144-9.696 47.874-14.766 74.022-15.058h0.336c26.148 0.294 50.878 5.364 74.022 15.058v-8.784c0-13.74 4.986-27.54 13.244-38.384l-87.436-65.352zM541.206 208.626l-13.668-15.89h-31.074l-13.668 15.89 29.204 12.406 29.206-12.406zM296.164 751.212c-19.284 11.888-29.672 25.020-29.672 38.006 0 27.048 36.134 63.828 69.708 86.556 29.912 20.246 92.524 54.216 175.798 54.216s145.886-33.97 175.798-54.218c33.574-22.728 69.708-59.508 69.708-86.556 0-12.984-10.388-26.118-29.672-38.006v27.286c0 0.004 0 0.010 0 0.015 0 21.519-14.672 39.611-34.558 44.82l-0.322 0.072c-38.846 9.928-115.232 26.584-190.348 26.614h-0.192c-65.046 0-129.67-14.322-172.436-26.342-19.908-5.596-33.812-23.944-33.812-44.618v-27.844zM348.202 698.532l-0.632 0.4c-2.411 1.551-4.393 2.946-6.318 4.412l0.238-0.174c-0.645 0.492-1.103 0.854-1.557 1.221l0.149-0.117c-0.665 0.528-1.191 0.96-1.709 1.401l0.095-0.079c-0.608 0.52-1.127 0.982-1.638 1.453l0.042-0.039c-0.388 0.354-0.78 0.706-1.148 1.060-0.57 0.553-1.115 1.107-1.647 1.673l-0.025 0.027c-0.256 0.27-0.524 0.542-0.768 0.812l-0.074 0.088h251.908c8.286 0 15.004 6.718 15.004 15.004s-6.718 15.004-15.004 15.004h-258.944v38.376c0.021 7.443 5 13.718 11.806 15.699l0.116 0.029c40.954 11.512 102.682 25.224 164.316 25.224h0.178c71.838-0.030 145.448-16.1 182.93-25.68 7.126-1.86 12.3-8.239 12.3-15.826 0-0.001 0-0.002 0-0.004v0-37.816h-40.24c-8.287-0.001-15.004-6.718-15.004-15.005s6.718-15.005 15.005-15.005c0 0 0.001 0 0.001 0h33.212l-0.074-0.088c-0.244-0.27-0.512-0.542-0.768-0.812-0.536-0.566-1.084-1.132-1.672-1.7-0.368-0.354-0.76-0.706-1.148-1.060-0.469-0.432-0.988-0.894-1.516-1.347l-0.080-0.067c-0.52-0.442-1.062-0.882-1.614-1.322-0.46-0.368-0.926-0.736-1.408-1.104-0.848-0.657-1.91-1.433-2.991-2.184l-0.271-0.178c-0.912-0.628-1.846-1.254-2.818-1.876l-0.632-0.4c-6.236-3.924-13.666-7.71-22.158-11.222-0.178-0.074-0.338-0.178-0.512-0.258-32.148-13.252-80.458-23.266-141.13-23.266s-108.982 10.014-141.13 23.266c-0.174 0.080-0.334 0.184-0.512 0.258-8.492 3.512-15.922 7.298-22.158 11.222zM349.618 663.664v-29.232c-8.25 4.276-16.598 6.576-23.442 7.806v34.868c6.436-4.574 14.176-9.090 23.442-13.442zM674.38 663.666c9.266 4.35 17.004 8.866 23.442 13.44v-34.864c-6.844-1.23-15.192-3.532-23.442-7.808v29.232zM402.456 425.634c-30.73 26.458-48.88 66.11-49.796 108.788-0.18 8.147-6.827 14.682-15 14.682h-11.938c-9.128 0-16.556 7.426-16.556 16.556v34.976c0 0.005 0 0.011 0 0.016 0 5.148 2.361 9.744 6.058 12.766l0.030 0.023c5.29-0.468 15.166-2.054 23.542-7.374l0.25-0.16c2.022-1.317 3.784-2.731 5.393-4.301l-0.007 0.007c0.446-0.44 0.912-0.85 1.388-1.242 0.14-0.116 0.282-0.224 0.424-0.336 0.36-0.282 0.726-0.55 1.1-0.804 0.148-0.1 0.292-0.202 0.442-0.298 0.508-0.328 1.022-0.638 1.552-0.916l0.008-0.006c0.538-0.282 1.088-0.534 1.646-0.766 0.154-0.064 0.31-0.122 0.466-0.182 0.424-0.166 0.85-0.316 1.282-0.452 0.162-0.052 0.322-0.104 0.486-0.15 0.566-0.164 1.136-0.308 1.712-0.422l0.028-0.006c0.592-0.116 1.19-0.198 1.79-0.262 0.162-0.018 0.324-0.028 0.484-0.040 0.454-0.038 0.91-0.060 1.368-0.066 0.104-0.002 0.206-0.014 0.308-0.014 0.066 0 0.134 0.010 0.2 0.010 0.59 0.006 1.182 0.030 1.774 0.086l0.046 0.002c0.606 0.060 1.212 0.154 1.816 0.27 0.17 0.032 0.34 0.072 0.51 0.108 0.448 0.098 0.894 0.21 1.34 0.336 0.176 0.050 0.352 0.098 0.528 0.154 0.592 0.188 1.18 0.392 1.762 0.634 7.54 3.189 12.734 10.524 12.734 19.072 0 0.010 0 0.021 0 0.031v-0.002 35.884c38.636-12.168 86.142-18.46 132.372-18.46s93.736 6.292 132.372 18.46v-35.884c0-0.008 0-0.018 0-0.027 0-9.21 6.030-17.012 14.358-19.672l0.146-0.040c0.168-0.052 0.336-0.098 0.504-0.148 0.456-0.13 0.914-0.246 1.374-0.344 0.16-0.034 0.32-0.072 0.482-0.102 1.214-0.232 2.438-0.35 3.658-0.36 0.062 0 0.126-0.010 0.188-0.010 0.096 0 0.192 0.012 0.29 0.014 0.47 0.006 0.938 0.030 1.406 0.068 0.152 0.012 0.304 0.022 0.456 0.038 1.2 0.126 2.386 0.358 3.546 0.694 0.158 0.046 0.314 0.096 0.472 0.146 0.436 0.136 0.866 0.29 1.294 0.456 0.154 0.060 0.31 0.118 0.462 0.182 0.558 0.232 1.11 0.484 1.648 0.766l0.012 0.006c0.528 0.278 1.042 0.588 1.548 0.914 0.15 0.096 0.296 0.2 0.446 0.3 0.372 0.254 0.738 0.522 1.096 0.802 0.144 0.112 0.288 0.222 0.428 0.338 0.476 0.394 0.942 0.802 1.386 1.242 0.504 0.5 1.028 0.97 1.558 1.428l0.418 0.356c0.492 0.412 0.99 0.81 1.5 1.188l0.14 0.108c0.552 0.406 1.114 0.786 1.682 1.156 0.152 0.1 0.306 0.196 0.46 0.294 0.506 0.318 1.018 0.626 1.532 0.918l0.224 0.13c0.586 0.326 1.176 0.634 1.77 0.928l0.444 0.216c0.532 0.256 1.066 0.504 1.6 0.736l0.22 0.098c0.955 0.432 2.253 0.934 3.576 1.381l0.344 0.101 0.096 0.032c0.65 0.214 1.296 0.412 1.934 0.596l0.072 0.020c3.353 0.995 7.3 1.752 11.359 2.126l0.247 0.018c3.729-3.045 6.090-7.642 6.090-12.791 0-0.006 0-0.012 0-0.018v0.001-34.976c0-9.13-7.428-16.556-16.556-16.556h-11.938c0 0-0.001 0-0.001 0-8.173 0-14.819-6.535-14.998-14.665v-0.017c-0.916-42.678-19.066-82.33-49.796-108.788-31.866-27.438-68.718-41.6-109.542-42.092-40.828 0.49-77.678 14.65-109.548 42.090zM437.502 221.992c-0.639-0.282-1.383-0.445-2.166-0.445-1.841 0-3.47 0.906-4.466 2.297l-0.011 0.017-60.508 84.672 15.738 2.924c0.856 0.156 1.746-0.048 2.444-0.57l93.576-69.944-44.606-18.95zM475.264-33.99l27.374 196.716h18.72l27.374-196.716h-73.468zM857.608-33.99h-60.016v121.666c0 8.288-6.718 15.004-15.004 15.004s-15.004-6.716-15.004-15.004v-121.666h-188.55l-28.818 207.076 19.98 23.228 4.57-1.942c4.128-1.809 8.938-2.864 13.994-2.87h0.002c11.158 0 21.924 5.298 28.794 14.914l68.654 96.072 86.522-16.072c5.53-1.666 9.92-3.261 14.209-5.052l-0.977 0.362c-15.868-17.728-17.046-44.91-1.638-64.020l16.33-20.252c8.294-10.286 20.096-16.726 33.234-18.134 1.796-0.194 3.588-0.29 5.37-0.29 11.134 0 21.852 3.742 30.682 10.762 4.025-12.702 6.344-27.309 6.344-42.459 0-0.038 0-0.075 0-0.113v0.006-162.536h0.002c0.002-10.3-8.38-18.68-18.68-18.68zM716.816 102.68h-79.018c-13.516 0-24.512-10.996-24.512-24.512v-42.098c0-13.516 10.996-24.512 24.512-24.512h79.018c13.516 0 24.51 10.996 24.51 24.512v42.098c0 13.518-10.996 24.512-24.51 24.512zM643.292 41.57v31.102h68.022v-31.102h-68.022zM386.202 102.682h-79.018c-13.516 0-24.51-10.996-24.51-24.512v-42.098c0-13.516 10.996-24.512 24.51-24.512h79.018c13.516 0 24.512 10.996 24.512 24.512v42.098c0.002 13.516-10.996 24.512-24.512 24.512zM380.706 41.57h-68.022v31.102h68.022v-31.102z" />
</font>
</defs>
</svg>
